百度云资源论坛

 找回密码
 立即注册
搜索

[BD-4K] 秘密花园 The.Secret.Garden.2020.HDR.2160p.WEB.H265-HUZZAH 10.69GB

[复制链接]
百度云电影 发表于 2020-8-16 06:39:34 | 显示全部楼层 |阅读模式
帖子完整标题:秘密花园 The.Secret.Garden.2020.HDR.2160p.WEB.H265-HUZZAH 10.69GB




◎译  名 秘密花园
◎片  名 The Secret Garden
◎年  代 2020
◎产  地 英国 / 法国
◎类  别 剧情 / 奇幻
◎语  言 英语
◎上映日期 2020-08-07(美国)
◎IMDb评分  6.9/10 from 47 users
◎片  长 99分钟
◎导  演 马克·穆登 Marc Munden
◎编  剧 杰克·索恩 Jack Thorne / 弗朗西丝·霍奇森·伯内特 Frances Hodgson Burnett
◎主  演 迪克西·艾格瑞克斯 Dixie Egerickx
       科林·费尔斯 Colin Firth
       朱丽·沃特斯 Julie Walters
       伊登·黑赫斯特 Edan Hayhurst
       梅芙·德莫迪 Maeve Dermody
       杰玛·鲍威尔 Jemma Powell
       保罗·G·雷蒙德 Paul G. Raymond
       阿米尔·威尔森 Amir Wilson
       Isis Davis
       Sonia Goswami
       Paul Dean-Kelly
       Anne Lacey
       Albert Giannitelli
       Jackson Kai
       Chloe Stannage
       Tommy Gene Surridge


◎标  签 奇幻 | 英国 | 小说改编 | 童话 | ColinFirth | 2020 | 儿童 | 电影

◎简  介   

  小女孩玛丽父母双亡,她生活在姨夫阴暗神秘的大房子里。随后,玛丽闯进了禁闭已久的花园,与迪肯、柯林等人找到了快乐的源泉。充满魔力的旅程揭开,快乐、爱心,改变了孩子们的人生。
Video
ID                                       : 1
Format                                   : HEVC
Format/Info                              : High Efficiency Video Coding
Codec ID                                 : V_MPEGH/ISO/HEVC
Duration                                 : 1 h 39 min
Bit rate                                 : 14.9 Mb/s
Width                                    : 3 840 pixels
Height                                   : 2 160 pixels
Display aspect ratio                     : 16:9
Frame rate mode                          : Constant
Frame rate                               : 23.976 (24000/1001/189150) FPS
Color space                              : YUV
Chroma subsampling                       : 4:2:0 (Type 2)
Bit depth                                : 10 bits
Bits/(Pixel*Frame)                       : 0.075
Stream size                              : 10.4 GiB (98%)
Default                                  : Yes
Forced                                   : No
Color range                              : Limited
Color primaries                          : BT.2020
Transfer characteristics                 : PQ
Matrix coefficients                      : BT.2020 non-constant
Maximum Content Light Level              : 1028 cd/m2
Maximum Frame-Average Light Level        : 338 cd/m2

Audio
ID                                       : 2
Format                                   : E-AC-3
Format/Info                              : Enhanced AC-3
Commercial name                          : Dolby Digital Plus
Codec ID                                 : A_EAC3
Duration                                 : 1 h 39 min
Bit rate mode                            : Constant
Bit rate                                 : 256 kb/s
Channel(s)                               : 6 channels
Channel layout                           : L R C LFE Ls Rs
Sampling rate                            : 48.0 kHz
Frame rate                               : 31.250 FPS (1536 SPF)
Compression mode                         : Lossy
Stream size                              : 183 MiB (2%)
Language                                 : English
Service kind                             : Complete Main
Default                                  : Yes
Forced                                   : No

Text
ID                                       : 3
Format                                   : UTF-8
Codec ID                                 : S_TEXT/UTF8
Codec ID/Info                            : UTF-8 Plain Text
Duration                                 : 1 h 32 min
Bit rate                                 : 43 b/s
Count of elements                        : 1040
Stream size                              : 29.5 KiB (0%)
Language                                 : English
Default                                  : No
Forced                                   : No





3aa2893847be54c84bbb56098c506654.zip (54.94 KB, 下载次数: 0)

回复

使用道具 举报

小黑屋|百度云资源论坛

本网站所有资源来自网络,如无意中侵犯了您的权益,请发邮件至 [email protected],立即清除相关链接

GMT+8, 2024-7-19 06:56 , Processed in 0.093340 second(s), 26 queries .

Powered by Discuz! X3.2

© 2001-2013 Comsenz Inc.

快速回复 返回顶部 返回列表