百度云资源论坛

 找回密码
 立即注册
搜索

[BD-4K] 纽约唯一活着的男孩/心跳纽约 The.Only.Living.Boy.In.New.York.2017...

[复制链接]
百度云电影 发表于 2020-5-15 11:37:54 | 显示全部楼层 |阅读模式
帖子完整标题:纽约唯一活着的男孩/心跳纽约 The.Only.Living.Boy.In.New.York.2017.HDR.2160p.WEB.h265-WATCHER 9.36GB




◎译  名 纽约唯一活着的男孩 / 心跳纽约(港) / 纽约寂寞男孩(台)
◎片  名 The Only Living Boy in New York
◎年  代 2017
◎产  地 美国
◎类  别 剧情
◎语  言 英语
◎上映日期 2017-08-11(美国)
◎IMDb评分  6.3/10 from 10319 users
◎导  演 马克·韦布 Marc Webb
◎编  剧 阿兰·里布 Allan Loeb
◎主  演 卡勒姆·特纳 Callum Turner
       杰夫·布里吉斯 Jeff Bridges
       凯特·贝金赛尔 Kate Beckinsale
       皮尔斯·布鲁斯南 Pierce Brosnan
       辛西娅·尼克松 Cynthia Nixon
       科雷西·克莱门斯 Kiersey Clemons
       泰特·多诺万 Tate Donovan
       华莱士·肖恩 Wallace Shawn
       安赫·道格 Anh Duong
       黛比·玛扎 Debi Mazar
       本·霍兰兹沃思 Ben Hollandsworth
       约翰·博尔格 John Bolger
       比尔·坎普 Bill Camp
       理查德·贝金斯 Richard Bekins
       赖恩·斯皮克曼 Ryan Speakman
       奥利弗·桑顿 Oliver Thornton
       亚历山大·索科维科夫 Alexander Sokovikov
       艾德·朱厄特 Ed Jewett
       艾米·霍恩 Amy Hohn
       詹姆斯·塞托 James Saito
       玛德赫·杰佛里 Madhur Jaffrey
       彼得·弗朗西斯·詹姆斯 Peter Francis James


◎标  签 美国 | 剧情 | 2017 | 纽约 | 爱情 | 文艺 | 青春 | 家庭

◎简  介  

  故事讲述充满文青气质的汤马大学毕业,从父亲的豪宅搬到小区生活,漂流在纽约大都会中,一日,汤马意外发现父亲有外遇,试图出手阻止但却情不自禁投入外遇的怀抱。汤马迷失在了偷情的快感与罪疚之中...
Video
ID                                       : 1
Format                                   : HEVC
Format/Info                              : High Efficiency Video Coding
HDR format                               : SMPTE ST 2094 App 4, Version 0
Codec ID                                 : V_MPEGH/ISO/HEVC
Duration                                 : 1 h 28 min
Bit rate                                 : 14.5 Mb/s
Width                                    : 3 840 pixels
Height                                   : 2 080 pixels
Display aspect ratio                     : 1.85:1
Frame rate mode                          : Constant
Frame rate                               : 23.976 (24000/1001/189150) FPS
Standard                                 : NTSC
Color space                              : YUV
Chroma subsampling                       : 4:2:0 (Type 2)
Bit depth                                : 10 bits
Bits/(Pixel*Frame)                       : 0.076
Stream size                              : 8.96 GiB (96%)
Default                                  : Yes
Forced                                   : No
Color range                              : Limited
Color primaries                          : BT.2020
Transfer characteristics                 : PQ
Matrix coefficients                      : BT.2020 non-constant
Mastering display color primaries        : Display P3
Mastering display luminance              : min: 0.0001 cd/m2, max: 1000 cd/m2
Maximum Content Light Level              : 2043 cd/m2
Maximum Frame-Average Light Level        : 230 cd/m2

Audio
ID                                       : 2
Format                                   : E-AC-3
Format/Info                              : Enhanced AC-3
Commercial name                          : Dolby Digital Plus
Codec ID                                 : A_EAC3
Duration                                 : 1 h 28 min
Bit rate mode                            : Constant
Bit rate                                 : 640 kb/s
Channel(s)                               : 6 channels
Channel layout                           : L R C LFE Ls Rs
Sampling rate                            : 48.0 kHz
Frame rate                               : 31.250 FPS (1536 SPF)
Compression mode                         : Lossy
Stream size                              : 405 MiB (4%)
Title                                    : English
Language                                 : English
Service kind                             : Complete Main
Default                                  : Yes
Forced                                   : No

Text
ID                                       : 3
Format                                   : UTF-8
Codec ID                                 : S_TEXT/UTF8
Codec ID/Info                            : UTF-8 Plain Text
Duration                                 : 1 h 27 min
Bit rate                                 : 67 b/s
Count of elements                        : 1506
Stream size                              : 42.9 KiB (0%)
Title                                    : English [SDH]
Language                                 : English
Default                                  : No
Forced                                   : No

Menu
00:00:00.000                             : en:Amazon Studios
00:00:20.000                             : en:Something is missing from New York City
00:04:10.000                             : en:Title Sequence
00:04:16.000                             : en:Thomas meets his curious neighbor W.F. Gerald
00:07:22.000                             : en:Thomas shares a drink with Gerald
00:10:34.000                             : en:The safety blanket of a dinner party
00:12:50.000                             : en:Thomas takes Mimi to a show
00:16:45.000                             : en:Thomas has lunch with his father
00:18:30.000                             : en:Thomas tells Gerald how his lunch with his father went
00:20:18.000                             : en:"Then came Johanna"
00:23:23.000                             : en:Thomas shares his mother's condition with Gerald
00:24:33.000                             : en:Thomas follows the mystery woman to lunch
00:26:47.000                             : en:Thomas helps his mother look for a photograph
00:28:21.000                             : en:Thomas demands Johanna stop seeing Ethan
00:29:10.000                             : en:Gerald offers Thomas an alternative solution to end the affair
00:31:11.000                             : en:Thomas brings Mimi to his friend's wedding
00:34:20.000                             : en:Thomas and Johanna speak outside the wedding hall
00:37:15.000                             : en:Uncle Buster gives his wedding toast
00:40:20.000                             : en:Thomas tells Johanna about his goals and ambitions
00:42:14.000                             : en:Gerald gives Thomas feedback on his written story
00:44:41.000                             : en:Thomas meets his father at work
00:46:32.000                             : en:Thomas looks for Gerald in his apartment
00:50:27.000                             : en:Thomas asks Johanna to stop seeing Ethan
00:54:20.000                             : en:Thomas invites Gerald to his father's company party
00:55:41.000                             : en:Thomas introduces Mimi to Judith at the party
00:57:59.000                             : en:Johanna takes a smoke break
00:59:27.000                             : en:Mimi follows Thomas out of the party
01:05:15.000                             : en:Thomas rushes to his father's office to convey the truth
01:10:10.000                             : en:The story behind Gerald's story
01:15:50.000                             : en:Thomas returns to his mother
01:18:41.000                             : en:Ethan and Thomas take a wall in the park
01:20:53.000                             : en:Gerald reads his book to the audience
01:21:38.000                             : en:End Credits



                                                                                                                                                                                                        
                                                                                                                                                                                                                                                                                                                                                                                                                                                                                                                                                                                                                                                                                                                                                                                                                                                       5fff1a6aeecae6b25cce1066e9a8958f.torrent (47.46 KB, 下载次数: 0)

回复

使用道具 举报

小黑屋|百度云资源论坛 |网站地图

本网站所有资源来自网络,如无意中侵犯了您的权益,请发邮件至 [email protected],立即清除相关链接

GMT+8, 2020-7-13 00:21 , Processed in 0.098016 second(s), 23 queries .

Powered by Discuz! X3.2

© 2001-2013 Comsenz Inc.

快速回复 返回顶部 返回列表