百度云资源论坛

 找回密码
 立即注册
搜索

奇门遁甲 The.Thousand.Faces.of.Dunjia.2017.3D.1080p.BluRay.x264-REGRET 12...

[复制链接]
百度云资源 发表于 2020-4-28 22:34:01 | 显示全部楼层 |阅读模式
帖子完整标题:奇门遁甲 The.Thousand.Faces.of.Dunjia.2017.3D.1080p.BluRay.x264-REGRET 12.25GB




◎译  名 The Thousand Faces of Dunjia
◎片  名 奇门遁甲
◎年  代 2017
◎产  地 中国大陆 / 中国香港
◎类  别 动作 / 奇幻
◎语  言 汉语普通话
◎上映日期 2017-12-14(中国大陆)
◎IMDb评分  5.4/10 from 984 users
◎片  长 113分钟
◎导  演 袁和平 Woo-ping Yuen
◎编  剧 徐克 Hark Tsui / 魏君子 Junzi Wei / 杨秉佳 Bingjia Yang / 许少飞 Shaofei Xu
◎主  演 董成鹏 Da Peng
       倪妮 Ni Ni
       李治廷 Aarif Lee
       周冬雨 Dongyu Zhou
       伍佰 Wu Bai
       柳岩 Yan Liu
       许明虎 Tiger Xu
       杨一威 Yiwei Yang
       谢苗 Miu Tse
       孙明明 Mingming Sun
       黄晓明 Xiaoming Huang


◎标  签 奇幻 | 魔幻 | 武侠 | 烂片 | 动作 | 中国大陆 | 2017 | 华语

◎简  介  

  新上任的捕快刀宜长(李治廷 饰)奉旨判案,误打误撞救下了精通“奇门遁甲”之术的江湖组织“雾隐门”女弟子铁蜻蜓(倪妮 饰)。铁蜻蜓受门派老大(伍佰 饰)之托,调查神秘的天外来物踪迹,当众人惨败之际,二师兄诸葛青云(大鹏 饰)却带着神秘少女小圆圈(周冬雨 饰)归来,并称此人是新任掌门,铁蜻蜓与诸葛青云陷入芥蒂,另一边老大与其它几大门派长老也因为抢夺神器而开始厮杀。因为“天外来客”的降临,各大门派对雾隐门进行了追杀,因为小圆圈身世不明,门派内也争执不断,眼看大敌当前,正邪之战即将爆发,一场天地浩劫即将来临……

◎获奖情况  

  第37届香港电影金像奖(2018)
  最佳动作设计(提名) 袁信义 / 袁祥仁
  最佳视觉效果(提名) 张诚浩 / 朴英秀 / 孙五亨

  第12届亚洲电影大奖(2018)
  最佳动作电影(提名)
  最佳造型设计(提名) 陈顾方
  最佳视觉效果(提名) 张诚浩 / 朴英秀 / 孙五亨

  第4届豆瓣电影年度榜单(2017)
  12月最受关注电影(提名)
Video
ID                                       : 1
Format                                   : AVC
Format/Info                              : Advanced Video Codec
Format settings                          : CABAC / 4 Ref Frames
Format settings, CABAC                   : Yes
Format settings, Reference frames        : 4 frames
Codec ID                                 : V_MPEG4/ISO/AVC
Duration                                 : 1 h 52 min
Bit rate                                 : 10.0 Mb/s
Width                                    : 1 920 pixels
Height                                   : 1 012 pixels
Display aspect ratio                     : 1.897
Frame rate mode                          : Constant
Frame rate                               : 23.976 (24000/1001/189150) FPS
Color space                              : YUV
Chroma subsampling                       : 4:2:0
Bit depth                                : 8 bits
Scan type                                : Progressive
Bits/(Pixel*Frame)                       : 0.215
Stream size                              : 7.89 GiB (64%)
Writing library                          : x264 core 159 r2991 1771b55
Encoding settings                        : cabac=1 / ref=4 / deblock=1:-3:-3 / analyse=0x3:0x133 / me=umh / subme=10 / psy=1 / psy_rd=1.00:0.15 / mixed_ref=1 / me_range=24 / chroma_me=1 / trellis=2 / 8x8dct=1 / cqm=0 / deadzone=21,11 / fast_pskip=1 / chroma_qp_offset=-3 / threads=18 / lookahead_threads=3 / sliced_threads=0 / nr=0 / decimate=1 / interlaced=0 / bluray_compat=0 / constrained_intra=0 / bframes=8 / b_pyramid=2 / b_adapt=2 / b_bias=0 / direct=3 / weightb=1 / open_gop=0 / weightp=2 / keyint=250 / keyint_min=23 / scenecut=40 / intra_refresh=0 / rc=crf / mbtree=0 / crf=20.0 / qcomp=0.60 / qpmin=0 / qpmax=69 / qpstep=4 / ip_ratio=1.40 / pb_ratio=1.30 / aq=3:0.90
Language                                 : English
Default                                  : Yes
Forced                                   : No
Color range                              : Limited
Matrix coefficients                      : BT.709

Audio
ID                                       : 2
Format                                   : DTS XLL X
Format/Info                              : Digital Theater Systems
Commercial name                          : DTS-HD Master Audio
Codec ID                                 : A_DTS
Duration                                 : 1 h 52 min
Bit rate mode                            : Variable
Bit rate                                 : 5 470 kb/s
Channel(s)                               : 8 channels
Channel(s)_Original                      : Object Based
Channel layout                           : Object Based
Sampling rate                            : 48.0 kHz
Frame rate                               : 93.750 FPS (512 SPF)
Stream size                              : 4.30 GiB (35%)
Language                                 : Chinese
Default                                  : Yes
Forced                                   : No

Text #1
ID                                       : 3
Format                                   : PGS
Muxing mode                              : zlib
Codec ID                                 : S_HDMV/PGS
Codec ID/Info                            : Picture based subtitle format used on BDs/HD-DVDs
Duration                                 : 1 h 46 min
Bit rate                                 : 23.9 kb/s
Count of elements                        : 3042
Stream size                              : 18.2 MiB (0%)
Title                                    : English
Language                                 : English
Default                                  : Yes
Forced                                   : Yes

Text #2
ID                                       : 4
Format                                   : PGS
Muxing mode                              : zlib
Codec ID                                 : S_HDMV/PGS
Codec ID/Info                            : Picture based subtitle format used on BDs/HD-DVDs
Duration                                 : 1 h 46 min
Bit rate                                 : 28.8 kb/s
Count of elements                        : 3000
Stream size                              : 21.9 MiB (0%)
Title                                    : Chinese (traditional)
Language                                 : Chinese
Default                                  : No
Forced                                   : No

Text #3
ID                                       : 5
Format                                   : PGS
Muxing mode                              : zlib
Codec ID                                 : S_HDMV/PGS
Codec ID/Info                            : Picture based subtitle format used on BDs/HD-DVDs
Duration                                 : 1 h 46 min
Bit rate                                 : 25.3 kb/s
Count of elements                        : 2988
Stream size                              : 19.3 MiB (0%)
Title                                    : Chinese (simplified)
Language                                 : Chinese
Default                                  : No
Forced                                   : No

Menu
00:00:00.000                             : en:00:00:00.000
00:05:54.312                             : en:00:05:54.312
00:09:08.089                             : en:00:09:08.089
00:14:16.647                             : en:00:14:16.647
00:20:13.295                             : en:00:20:13.295
00:28:26.330                             : en:00:28:26.330
00:39:10.265                             : en:00:39:10.265
00:44:35.339                             : en:00:44:35.339
00:48:14.183                             : en:00:48:14.183
00:53:02.388                             : en:00:53:02.388
01:01:55.295                             : en:01:01:55.295
01:06:59.098                             : en:01:06:59.098
01:11:56.771                             : en:01:11:56.771
01:17:46.704                             : en:01:17:46.704
01:25:04.141                             : en:01:25:04.141
01:27:55.729                             : en:01:27:55.729
01:36:03.091                             : en:01:36:03.091
01:38:35.326                             : en:01:38:35.326
01:43:15.022                             : en:01:43:15.022
01:46:57.494                             : en:01:46:57.494



                                                                                                                                                                                                        
                                                                                                                                                                                                                                                                                                                                                                                                                                                                                                                                                                                                                                                                                                                                                                                                                                                       219b8a09e166787f17c6d4297f2a81a3.torrent (61.95 KB, 下载次数: 0)

回复

使用道具 举报

小黑屋|百度云资源论坛 |网站地图

本网站所有资源来自网络,如无意中侵犯了您的权益,请发邮件至 [email protected],立即清除相关链接

GMT+8, 2020-9-22 13:14 , Processed in 0.101329 second(s), 23 queries .

Powered by Discuz! X3.2

© 2001-2013 Comsenz Inc.

快速回复 返回顶部 返回列表