百度云资源论坛

 找回密码
 立即注册
搜索

雪人奇缘 Abominable.2019.3D.1080p.BluRay.x264-JustWatch 6.56GB

[复制链接]
百度云资源 发表于 2020-2-7 10:19:03 | 显示全部楼层 |阅读模式
完整标题:雪人奇缘 Abominable.2019.3D.1080p.BluRay.x264-JustWatch 6.56GB




◎译  名 雪人奇缘 / Everest / 坏坏萌雪怪(台) / 珠穆朗玛 / 长毛雪宝(港)
◎片  名 Abominable
◎年  代 2019
◎产  地 美国 / 中国大陆
◎类  别 喜剧 / 动画 / 冒险
◎语  言 英语
◎上映日期 2019-09-07(多伦多电影节) / 2019-09-27(美国) / 2019-10-01(中国大陆)
◎IMDb评分  7.0/10 from 16669 users
◎片  长 97分钟
◎导  演 吉尔·卡尔顿 Jill Culton / 托德·维尔德曼 Todd Wilderman
◎编  剧 吉尔·卡尔顿 Jill Culton
◎主  演 汪可盈 Chloe Bennet
       阿尔伯特·蔡 Albert Tsai
       艾迪·伊扎德 Eddie Izzard
       莎拉·保罗森 Sarah Paulson
       丹增·诺盖·特雷纳 Tenzing Norgay Trainor
       周采芹 Tsai Chin
       张子枫 Zifeng Zhang
       陈飞宇 Feiyu Chen
       何向东 Xiangdong He
       刘风 Feng Liu
       万茜 Qian Wan
       蔡明 Ming Cai


◎标  签 动画 | 东方梦工厂 | 温情 | 冒险 | 美国 | 2019 | 治愈 | 喜剧

◎简  介  

  珠穆朗玛峰的雪人是传说吗?不是!不仅不是传说,它还拥有令人着迷的魔力!少女小艺在天台上目睹了雪人大毛即将被抓的惨况,决定亲自护送大毛回家,她的小伙伴阿俊和鹏鹏也加入了护送队伍。一路上冒险小分队路经了千岛湖、黄山、乐山大佛等著名的中国景点,雪人大毛为了躲避抓捕者,也逐一展现了自己神奇的魔力。巨大化的蒲公英,一秒变大的蓝莓,油菜花海浪,还有什么是雪人大毛的魔力做不到的?而抓捕者也早已在他们的目的地珠峰等待着冒险小分队步入早已设好的圈套…

◎获奖情况  

  第47届动画安妮奖(2020)
  最佳配音(提名) 丹增·诺盖·特雷纳
  最佳艺术指导(提名) 保罗·邓肯 / 克里斯托弗·布洛克 / 席琳·金慧达 / 马克斯·博厄斯 / 李珍
  最佳角色设计(提名)
  最佳动画效果(提名)

  第31届美国制片人工会奖(2020)
  最佳动画片制片人奖(提名)

  第24届美国艺术指导工会奖(2020)
  电影奖 最佳动画电影艺术指导(提名) 马克斯·博厄斯

  第67届美国音效剪辑协会奖(2020)
  金卷轴奖 最佳动画片音效剪辑(提名)

  第18届美国视觉效果协会奖(2020)
  最佳动画电影模拟动画效果(提名)

  第56届美国声音效果协会奖(2020)
  动画电影最佳音效(提名)

  第25届美国评论家选择电影奖(2020)
  最佳动画片(提名)
Video
ID                                       : 1
Format                                   : AVC
Format/Info                              : Advanced Video Codec
Format settings                          : CABAC / 4 Ref Frames
Format settings, CABAC                   : Yes
Format settings, Reference frames        : 4 frames
Codec ID                                 : V_MPEG4/ISO/AVC
Duration                                 : 1 h 37 min
Bit rate                                 : 9 015 kb/s
Width                                    : 1 920 pixels
Height                                   : 1 040 pixels
Display aspect ratio                     : 1.85:1
Frame rate mode                          : Constant
Frame rate                               : 23.976 FPS
Color space                              : YUV
Chroma subsampling                       : 4:2:0
Bit depth                                : 8 bits
Scan type                                : Progressive
Bits/(Pixel*Frame)                       : 0.188
Stream size                              : 5.99 GiB (91%)
Writing library                          : x264 core 158 r2988 7817004
Encoding settings                        : cabac=1 / ref=4 / deblock=1:-3:-3 / analyse=0x3:0x133 / me=umh / subme=8 / psy=1 / psy_rd=1.00:0.15 / mixed_ref=1 / me_range=16 / chroma_me=1 / trellis=2 / 8x8dct=1 / cqm=0 / deadzone=21,11 / fast_pskip=0 / chroma_qp_offset=-3 / threads=32 / lookahead_threads=5 / sliced_threads=0 / nr=0 / decimate=1 / interlaced=0 / bluray_compat=0 / constrained_intra=0 / bframes=3 / b_pyramid=2 / b_adapt=2 / b_bias=0 / direct=3 / weightb=1 / open_gop=0 / weightp=2 / keyint=240 / keyint_min=24 / scenecut=40 / intra_refresh=0 / rc_lookahead=50 / rc=2pass / mbtree=1 / bitrate=9015 / ratetol=1.0 / qcomp=0.60 / qpmin=0 / qpmax=69 / qpstep=4 / cplxblur=20.0 / qblur=0.5 / ip_ratio=1.40 / aq=1:1.00
Language                                 : English
Default                                  : Yes
Forced                                   : No

Audio
ID                                       : 2
Format                                   : AC-3
Format/Info                              : Audio Coding 3
Commercial name                          : Dolby Digital
Codec ID                                 : A_AC3
Duration                                 : 1 h 37 min
Bit rate mode                            : Constant
Bit rate                                 : 640 kb/s
Channel(s)                               : 6 channels
Channel layout                           : L R C LFE Ls Rs
Sampling rate                            : 48.0 kHz
Frame rate                               : 31.250 FPS (1536 SPF)
Bit depth                                : 16 bits
Compression mode                         : Lossy
Stream size                              : 445 MiB (7%)
Language                                 : English
Service kind                             : Complete Main
Default                                  : Yes
Forced                                   : No

Menu
00:00:00.000                             : en:00:00:00.000
00:04:11.835                             : en:00:04:11.835
00:09:10.884                             : en:00:09:10.884
00:13:42.238                             : en:00:13:42.238
00:16:13.598                             : en:00:16:13.598
00:21:34.752                             : en:00:21:34.752
00:25:02.459                             : en:00:25:02.459
00:29:30.435                             : en:00:29:30.435
00:33:57.452                             : en:00:33:57.452
00:36:43.785                             : en:00:36:43.785
00:41:53.010                             : en:00:41:53.010
00:46:30.705                             : en:00:46:30.705
00:50:42.331                             : en:00:50:42.331
00:56:31.555                             : en:00:56:31.555
01:01:40.530                             : en:01:01:40.530
01:06:33.198                             : en:01:06:33.198
01:11:44.425                             : en:01:11:44.425
01:15:26.355                             : en:01:15:26.355
01:20:41.545                             : en:01:20:41.545
01:26:44.408                             : en:01:26:44.408



                                                                                                                                                                                                        
                                                                                                                                                                                                                                                                                                                                                                                                                                                                                                                                                                                                                                                                                                                                                                                                                                                      
cc12bf05c7abeeec49721a886191cbab.torrent (33.5 KB, 下载次数: 0)

回复

使用道具 举报

小黑屋|百度云资源论坛 |网站地图

本网站所有资源来自网络,如无意中侵犯了您的权益,请发邮件至 [email protected],立即清除相关链接

GMT+8, 2020-11-25 15:45 , Processed in 0.105607 second(s), 23 queries .

Powered by Discuz! X3.2

© 2001-2013 Comsenz Inc.

快速回复 返回顶部 返回列表