百度云资源论坛

 找回密码
 立即注册
搜索

狂犬病 Rabid.2019.720p.BluRay.x264-GETiT 4.36GB

[复制链接]
百度云资源 发表于 2019-10-29 11:54:04 | 显示全部楼层 |阅读模式


帖子完整标题:狂犬病 Rabid.2019.720p.BluRay.x264-GETiT 4.36GB




◎译  名 狂犬病
◎片  名 Rabid
◎年  代 2019
◎产  地 加拿大 Canada
◎类  别 科幻 / 恐怖
◎语  言 英语
◎上映日期 2019-03-25(英国)
◎IMDb评分  5.5/10 from 141 users
◎导  演 Jen Soska / Sylvia Soska
◎编  剧 John Serge / Jen Soska / Sylvia Soska
◎主  演 Laura Vandervoort


◎标  签 恐怖 | 加拿大 | 翻拍 | 电影 | 惊悚 | 改编 | 加拿大电影 | SylviaSoska

◎简  介  

  What happens when you realize to achieve your dreams you have to live a nightmare? Rose is a quiet, demure, unassuming woman in her looks and action. Her dream is to become a famous designer in the fashion world, but terrible accident leaves Rose scared beyond recognition. She seeks out a radical untested stem cell treatment. The treatment is nothing short of a miracle and the wallflower turns into the bell-of-the-ball. It all seems to good to be true. She is now everything she wanted to be. But everything in life comes at a price and this new found perfect life is no exception.
Video
ID                                       : 1
Format                                   : AVC
Format/Info                              : Advanced Video Codec
Format settings                          : CABAC / 5 Ref Frames
Format settings, CABAC                   : Yes
Format settings, Reference frames        : 5 frames
Codec ID                                 : V_MPEG4/ISO/AVC
Duration                                 : 1 h 47 min
Bit rate                                 : 4 289 kb/s
Width                                    : 1 280 pixels
Height                                   : 688 pixels
Display aspect ratio                     : 1.85:1
Frame rate mode                          : Constant
Frame rate                               : 23.976 (24000/1001) FPS
Color space                              : YUV
Chroma subsampling                       : 4:2:0
Bit depth                                : 8 bits
Scan type                                : Progressive
Bits/(Pixel*Frame)                       : 0.203
Stream size                              : 3.23 GiB (74%)
Writing library                          : x264 core 157 r2969 d4099dd
Encoding settings                        : cabac=1 / ref=5 / deblock=1:0:0 / analyse=0x3:0x133 / me=umh / subme=7 / psy=1 / psy_rd=1.00:0.00 / mixed_ref=1 / me_range=16 / chroma_me=1 / trellis=2 / 8x8dct=1 / cqm=0 / deadzone=21,11 / fast_pskip=0 / chroma_qp_offset=-2 / threads=16 / lookahead_threads=2 / sliced_threads=0 / nr=0 / decimate=1 / interlaced=0 / bluray_compat=0 / constrained_intra=0 / bframes=3 / b_pyramid=2 / b_adapt=1 / b_bias=0 / direct=3 / weightb=1 / open_gop=0 / weightp=2 / keyint=250 / keyint_min=23 / scenecut=40 / intra_refresh=0 / rc_lookahead=50 / rc=2pass / mbtree=1 / bitrate=4289 / ratetol=1.0 / qcomp=0.60 / qpmin=0 / qpmax=69 / qpstep=4 / cplxblur=20.0 / qblur=0.5 / ip_ratio=1.40 / aq=1:1.00
Language                                 : English
Default                                  : Yes
Forced                                   : No

Audio
ID                                       : 2
Format                                   : DTS
Format/Info                              : Digital Theater Systems
Codec ID                                 : A_DTS
Duration                                 : 1 h 47 min
Bit rate mode                            : Constant
Bit rate                                 : 1 509 kb/s
Channel(s)                               : 6 channels
Channel layout                           : C L R Ls Rs LFE
Sampling rate                            : 48.0 kHz
Frame rate                               : 93.750 FPS (512 SPF)
Bit depth                                : 24 bits
Compression mode                         : Lossy
Stream size                              : 1.14 GiB (26%)
Title                                    : DTS
Language                                 : English
Default                                  : Yes
Forced                                   : No

Menu
00:00:00.000                             : en:00:00:00.000
00:06:34.436                             : en:00:06:34.436
00:13:33.021                             : en:00:13:33.021
00:23:02.423                             : en:00:23:02.423
00:31:54.996                             : en:00:31:54.996
00:40:18.499                             : en:00:40:18.499
00:49:48.861                             : en:00:49:48.861
00:58:33.051                             : en:00:58:33.051
01:06:35.533                             : en:01:06:35.533
01:15:27.940                             : en:01:15:27.940
01:25:41.094                             : en:01:25:41.094
01:40:07.084                             : en:01:40:07.084



                                                                                                                                                                                                        
                                                                                                                                                                                                                                                                                                                                                                                                                                                                                                                                                                                                                                                                                                                                                                                                                            1118ae4d349eca2fc3d6c6ad11a1516b.torrent (44.31 KB, 下载次数: 0)

回复

使用道具 举报

小黑屋|百度云资源论坛 |网站地图

本网站所有资源来自网络,如无意中侵犯了您的权益,请发邮件至 [email protected],立即清除相关链接

GMT+8, 2019-12-6 03:30 , Processed in 0.097068 second(s), 22 queries .

Powered by Discuz! X3.2

© 2001-2013 Comsenz Inc.

快速回复 返回顶部 返回列表