百度云资源论坛

 找回密码
 立即注册
搜索

[BD-4K] 海洋奇缘/摩瓦娜 Moana.2016.2160p.BluRay.x265.10bit.SDR.DTS-HD.MA.TrueH...

[复制链接]
百度云电影 发表于 2019-10-29 11:27:34 | 显示全部楼层 |阅读模式
帖子完整标题:海洋奇缘/摩瓦娜 Moana.2016.2160p.BluRay.x265.10bit.SDR.DTS-HD.MA.TrueHD.7.1.Atmos-SWTYBLZ 22.35GB




◎译  名 海洋奇缘 / 摩瓦娜 / 摩阿娜 / 莫阿娜
◎片  名 Moana
◎年  代 2016
◎产  地 美国
◎类  别 动画 / 歌舞 / 奇幻 / 冒险
◎语  言 英语
◎上映日期 2016-11-23(美国) / 2016-11-25(中国大陆)
◎IMDb评分  7.6/10 from 234250 users
◎片  长 107分钟
◎导  演 罗恩·克莱蒙兹 Ron Clements / 约翰·马斯克 John Musker / 唐·霍尔 Don Hall / 克里斯·威廉姆斯 Chris Williams
◎编  剧 杰拉德·布什 Jared Bush / 罗恩·克莱蒙兹 Ron Clements / 约翰·马斯克 John Musker / 克里斯·威廉姆斯 Chris Williams / 唐·霍尔 Don Hall / 帕米拉·里本 Pamela Ribon / 亚伦·坎德尔 Aaron Kandell / 乔丹·坎德尔 Jordan Kandell
◎主  演 奥丽伊·卡瓦洛 Auli'i Cravalho
       道恩·强森 Dwayne Johnson
       瑞切尔·豪斯 Rachel House
       特穆拉·莫里森 Temuera Morrison
       杰梅奈·克莱门特 Jemaine Clement
       尼可·斯彻金格 Nicole Scherzinger
       艾伦·图代克 Alan Tudyk
       奥斯卡·凯特利 Oscar Kightley
       特洛伊·波拉马鲁 Troy Polamalu
       普阿娜妮·卡瓦洛 Puanani Cravalho
       露易丝·布什 Louise Bush


◎标  签 迪士尼 | 动画 | 美国 | 冒险 | 奇幻 | 成长 | 2016 | 喜剧

◎简  介  

  故事最早始于住在风和海的半神毛伊(道恩·强森 Dwayne Johnson 配音),他偷走了女神的特菲堤之心,导致岩浆魔鬼厄卡陷入疯狂的状态,南太平洋各小岛也面临着毁灭的威胁。一千多年后,某座小岛上的酋长女儿莫阿娜(奥丽依·卡拉瓦霍 Auli'i Cravalho 配音)在父母的呵护下渐渐长大,童年时她曾偶然捡到特菲堤之心,亦曾受到大海的召唤,然而父亲却严厉禁止莫阿娜出海,即使小岛正遭受着死亡的威胁。从奶奶那里,莫阿娜知晓了他们这一族人的历史,于是为了拯救小岛,她依然出海去寻找被困在某地的毛伊,好让他归还特菲堤之心。历经千辛万苦,莫阿娜终于见到了这个传说中的高傲自大的半神。而毛伊则担心特菲堤之心带来霉运拒绝前往。
  只不过在命运的指引下,毛伊还是随着莫阿娜踏上未知的征途……

◎获奖情况  

  第89届奥斯卡金像奖(2017)
  最佳动画长片(提名) 约翰·马斯克 / 奥斯娜特·舒尔 / 罗恩·克莱蒙兹
  最佳原创歌曲(提名) 林-曼努尔·米兰达

  第74届金球奖(2017)
  电影类 最佳动画长片(提名)
  电影类 最佳原创歌曲(提名)

  第70届英国电影学院奖(2017)
  电影奖 最佳动画片(提名) 约翰·马斯克 / 罗恩·克莱蒙兹

  第44届动画安妮奖(2017)
  最佳动画长片(提名)
  最佳配音 奥丽伊·卡瓦洛
  最佳剪辑(提名)
  最佳分镜(提名)
  最佳角色设计(提名)
  最佳动画效果

  第28届美国制片人工会奖(2017)
  最佳动画片制片人奖(提名)

  第67届美国剪辑工会奖(2017)
  动画片最佳剪辑(提名)

  第15届美国视觉效果协会奖(2017)
  最佳动画电影视觉效果(提名)
  最佳动画电影CG动画角色(提名)
  最佳动画电影CG背景
  最佳动画电影模拟动画效果

  第53届美国声音效果协会奖(2017)
  动画电影最佳音效(提名)

  第22届美国评论家选择电影奖(2017)
  最佳动画片(提名)
  最佳歌曲(提名)

  第21届金卫星奖(2017)
  电影部门 最佳动画片(提名)

  第15届华盛顿影评人协会奖(2016)
  最佳动画片(提名)
  最佳配音(提名) 奥丽伊·卡瓦洛

  第29届芝加哥影评人协会奖(2016)
  最佳动画片(提名)

  第20届美国在线影评人协会奖(2017)
  最佳动画片(提名)

  第3届豆瓣电影年度榜单(2016)
  评分最高的动画片(提名)
Video
ID                                       : 1
Format                                   : HEVC
Format/Info                              : High Efficiency Video Coding
Codec ID                                 : V_MPEGH/ISO/HEVC
Duration                                 : 1 h 47 min
Bit rate                                 : 17.4 Mb/s
Width                                    : 3 840 pixels
Height                                   : 1 608 pixels
Display aspect ratio                     : 2.40:1
Frame rate mode                          : Constant
Frame rate                               : 23.976 (24000/1001) FPS
Color space                              : YUV
Chroma subsampling                       : 4:2:0
Bit depth                                : 10 bits
Bits/(Pixel*Frame)                       : 0.118
Stream size                              : 13.0 GiB (58%)
Title                                    : Moana.2016.2160p.BluRay.x265.10bit.SDR.DTS-HD.MA.TrueHD.7.1.Atmos-SWTYBLZ
Writing library                          : x265 3.0ed72af837053:[Windows][GCC 8.2.0][64 bit] 10bit
Encoding settings                        : cpuid=1111039 / frame-threads=16 / numa-pools=44,44 / wpp / no-pmode / no-pme / no-psnr / no-ssim / log-level=2 / input-csp=1 / input-res=3840x1608 / interlace=0 / total-frames=154229 / level-idc=51 / high-tier=1 / uhd-bd=0 / ref=3 / no-allow-non-conformance / repeat-headers / annexb / aud / hrd / info / hash=0 / no-temporal-layers / no-open-gop / min-keyint=1 / keyint=24 / gop-lookahead=0 / bframes=6 / b-adapt=2 / b-pyramid / bframe-bias=0 / rc-lookahead=25 / lookahead-slices=4 / scenecut=40 / radl=0 / no-splice / no-intra-refresh / ctu=64 / min-cu-size=8 / no-rect / no-amp / max-tu-size=32 / tu-inter-depth=1 / tu-intra-depth=1 / limit-tu=0 / rdoq-level=0 / dynamic-rd=0.00 / no-ssim-rd / signhide / no-tskip / nr-intra=0 / nr-inter=0 / no-constrained-intra / strong-intra-smoothing / max-merge=2 / limit-refs=3 / no-limit-modes / me=1 / subme=2 / merange=57 / temporal-mvp / weightp / no-weightb / no-analyze-src-pics / deblock=1:1 / no-sao / no-sao-non-deblock / rd=3 / no-early-skip / rskip / no-fast-intra / no-tskip-fast / no-cu-lossless / no-b-intra / no-splitrd-skip / rdpenalty=0 / psy-rd=0.40 / psy-rdoq=0.00 / no-rd-refine / no-lossless / cbqpoffs=0 / crqpoffs=0 / rc=crf / crf=16.0 / qcomp=0.60 / qpstep=4 / stats-write=0 / stats-read=0 / vbv-maxrate=160000 / vbv-bufsize=160000 / vbv-init=0.9 / crf-max=0.0 / crf-min=0.0 / ipratio=1.40 / pbratio=1.30 / aq-mode=1 / aq-strength=0.40 / cutree / zone-count=0 / no-strict-cbr / qg-size=32 / no-rc-grain / qpmax=69 / qpmin=0 / no-const-vbv / sar=1 / overscan=0 / videoformat=5 / range=0 / colorprim=2 / transfer=2 / colormatrix=2 / chromaloc=0 / display-window=0 / max-cll=0,0 / min-luma=0 / max-luma=1023 / log2-max-poc-lsb=8 / vui-timing-info / vui-hrd-info / slices=1 / opt-qp-pps / opt-ref-list-length-pps / no-multi-pass-opt-rps / scenecut-bias=0.05 / no-opt-cu-delta-qp / no-aq-motion / no-hdr / no-hdr-opt / no-dhdr10-opt / no-idr-recovery-sei / analysis-reuse-level=5 / scale-factor=0 / refine-intra=0 / refine-inter=0 / refine-mv=0 / refine-ctu-distortion=0 / no-limit-sao / ctu-info=0 / no-lowpass-dct / refine-analysis-type=0 / copy-pic=1 / max-ausize-factor=1.0 / no-dynamic-refine / no-single-sei / no-hevc-aq / qp-adaptation-range=1.00
Default                                  : Yes
Forced                                   : No

Audio #1
ID                                       : 2
Format                                   : MLP FBA 16-ch
Format/Info                              : Meridian Lossless Packing FBA with 16-channel presentation
Commercial name                          : Dolby TrueHD with Dolby Atmos
Codec ID                                 : A_TRUEHD
Duration                                 : 1 h 47 min
Bit rate mode                            : Variable
Bit rate                                 : 7 681 kb/s
Maximum bit rate                         : 11.3 Mb/s
Channel(s)                               : 8 channels
Channel layout                           : L R C LFE Ls Rs Lb Rb
Sampling rate                            : 48.0 kHz
Frame rate                               : 1 200.000 FPS (40 SPF)
Compression mode                         : Lossless
Stream size                              : 5.75 GiB (26%)
Title                                    : Moana.2016.2160p.BluRay.x265.10bit.SDR.DTS-HD.MA.TrueHD.7.1.Atmos-SWTYBLZ
Language                                 : English
Default                                  : Yes
Forced                                   : No
Number of dynamic objects                : 13
Bed channel count                        : 1 channel
Bed channel configuration                : LFE

Audio #2
ID                                       : 3
Format                                   : DTS XLL
Format/Info                              : Digital Theater Systems
Commercial name                          : DTS-HD Master Audio
Codec ID                                 : A_DTS
Duration                                 : 1 h 47 min
Bit rate mode                            : Variable
Bit rate                                 : 3 923 kb/s
Channel(s)                               : 8 channels
Channel layout                           : C L R LFE Lb Rb Lss Rss
Sampling rate                            : 48.0 kHz
Frame rate                               : 93.750 FPS (512 SPF)
Bit depth                                : 24 bits
Compression mode                         : Lossless
Stream size                              : 2.94 GiB (13%)
Title                                    : Moana.2016.2160p.BluRay.x265.10bit.SDR.DTS-HD.MA.TrueHD.7.1.Atmos-SWTYBLZ
Language                                 : English
Default                                  : No
Forced                                   : No

Audio #3
ID                                       : 4
Format                                   : AC-3
Format/Info                              : Audio Coding 3
Commercial name                          : Dolby Digital
Codec ID                                 : A_AC3
Duration                                 : 1 h 47 min
Bit rate mode                            : Constant
Bit rate                                 : 640 kb/s
Channel(s)                               : 6 channels
Channel layout                           : L R C LFE Ls Rs
Sampling rate                            : 48.0 kHz
Frame rate                               : 31.250 FPS (1536 SPF)
Bit depth                                : 16 bits
Compression mode                         : Lossy
Stream size                              : 491 MiB (2%)
Title                                    : Moana.2016.2160p.BluRay.x265.10bit.SDR.DTS-HD.MA.TrueHD.7.1.Atmos-SWTYBLZ
Language                                 : English
Service kind                             : Complete Main
Default                                  : No
Forced                                   : No

Text #1
ID                                       : 5
Format                                   : UTF-8
Codec ID                                 : S_TEXT/UTF8
Codec ID/Info                            : UTF-8 Plain Text
Duration                                 : 1 h 45 min
Bit rate                                 : 44 b/s
Count of elements                        : 1246
Stream size                              : 34.7 KiB (0%)
Title                                    : English-SRT
Language                                 : English
Default                                  : Yes
Forced                                   : No

Text #2
ID                                       : 6
Format                                   : UTF-8
Codec ID                                 : S_TEXT/UTF8
Codec ID/Info                            : UTF-8 Plain Text
Duration                                 : 1 h 45 min
Bit rate                                 : 47 b/s
Count of elements                        : 1346
Stream size                              : 36.6 KiB (0%)
Title                                    : English-SDH-SRT
Language                                 : English
Default                                  : No
Forced                                   : No

Text #3
ID                                       : 7
Format                                   : PGS
Muxing mode                              : zlib
Codec ID                                 : S_HDMV/PGS
Codec ID/Info                            : Picture based subtitle format used on BDs/HD-DVDs
Duration                                 : 1 h 45 min
Bit rate                                 : 32.0 kb/s
Count of elements                        : 2868
Stream size                              : 24.2 MiB (0%)
Title                                    : English-PGS
Language                                 : English
Default                                  : No
Forced                                   : No

Text #4
ID                                       : 8
Format                                   : PGS
Muxing mode                              : zlib
Codec ID                                 : S_HDMV/PGS
Codec ID/Info                            : Picture based subtitle format used on BDs/HD-DVDs
Duration                                 : 1 h 45 min
Bit rate                                 : 29.3 kb/s
Count of elements                        : 2560
Stream size                              : 22.1 MiB (0%)
Title                                    : French-PGS
Language                                 : French
Default                                  : No
Forced                                   : No

Text #5
ID                                       : 9
Format                                   : PGS
Muxing mode                              : zlib
Codec ID                                 : S_HDMV/PGS
Codec ID/Info                            : Picture based subtitle format used on BDs/HD-DVDs
Duration                                 : 1 h 45 min
Bit rate                                 : 26.0 kb/s
Count of elements                        : 2432
Stream size                              : 19.6 MiB (0%)
Title                                    : Spanish-PGS
Language                                 : Spanish
Default                                  : No
Forced                                   : No

Text #6
ID                                       : 10
Format                                   : PGS
Muxing mode                              : zlib
Codec ID                                 : S_HDMV/PGS
Codec ID/Info                            : Picture based subtitle format used on BDs/HD-DVDs
Duration                                 : 1 h 45 min
Bit rate                                 : 22.9 kb/s
Count of elements                        : 2108
Stream size                              : 17.3 MiB (0%)
Title                                    : Japanese-PGS
Language                                 : Japanese
Default                                  : No
Forced                                   : No

Menu
00:00:00.000                             : en:Chapter 01
00:07:15.518                             : en:Chapter 02
00:11:59.635                             : en:Chapter 03
00:16:13.472                             : en:Chapter 04
00:21:29.162                             : en:Chapter 05
00:28:02.263                             : en:Chapter 06
00:32:10.887                             : en:Chapter 07
00:35:15.738                             : en:Chapter 08
00:41:36.452                             : en:Chapter 09
00:45:04.660                             : en:Chapter 10
00:49:10.155                             : en:Chapter 11
00:53:20.864                             : en:Chapter 12
00:57:33.158                             : en:Chapter 13
01:05:44.857                             : en:Chapter 14
01:10:45.908                             : en:Chapter 15
01:12:51.700                             : en:Chapter 16
01:15:41.787                             : en:Chapter 17
01:23:16.908                             : en:Chapter 18
01:29:50.760                             : en:Chapter 19
01:36:13.184                             : en:Chapter 20



                                                                                                                                                                                                        
                                                                                                                                                                                                                                                                                                                                                                                                                                                                                                                                                                                                                                                                                                                                                                                                                           979a18a2a12fce13d7071b4982569110.torrent (56.5 KB, 下载次数: 0)

回复

使用道具 举报

小黑屋|百度云资源论坛 |网站地图

本网站所有资源来自网络,如无意中侵犯了您的权益,请发邮件至 [email protected],立即清除相关链接

GMT+8, 2019-12-6 13:35 , Processed in 0.104919 second(s), 22 queries .

Powered by Discuz! X3.2

© 2001-2013 Comsenz Inc.

快速回复 返回顶部 返回列表