百度云资源论坛

 找回密码
 立即注册
搜索

[BD-4K] 魔发奇缘/缠结 Tangled.2010.2160p.UHD.BluRay.X265.10bit.HDR.TrueHD.7.1.A...

[复制链接]
百度云资源 发表于 2019-10-29 11:27:34 | 显示全部楼层 |阅读模式


帖子完整标题:魔发奇缘/缠结 Tangled.2010.2160p.UHD.BluRay.X265.10bit.HDR.TrueHD.7.1.Atmos-TERMiNAL 11.74GB




◎译  名 魔发奇缘 / 缠结 / 莴苣公主 / 长发公主 / 长发姑娘
◎片  名 Tangled
◎年  代 2010
◎产  地 美国
◎类  别 喜剧 / 动画 / 冒险
◎语  言 英语
◎上映日期 2010-11-24(美国) / 2011-02-03(中国台湾)
◎IMDb评分  7.7/10 from 374579 users
◎片  长 100分钟
◎导  演 内森·格雷诺 Nathan Greno / 拜伦·霍华德 Byron Howard
◎编  剧 雅各布·格林 Jacob Grimm / 威廉·格林 Wilhelm Grimm / 丹·福格尔曼 Dan Fogelman
◎主  演 曼迪·摩尔 Mandy Moore
       扎克瑞·莱维 Zachary Levi
       唐纳·墨菲 Donna Murphy
       朗·普尔曼 Ron Perlman
       迈克·康纳·盖尼 M.C. Gainey
       杰弗里·塔伯 Jeffrey Tambor
       布拉德·加内特 Brad Garrett
       保罗·F·汤普金斯 Paul F. Tompkins
       理查德·基尔 Richard Kiel
       德莱尼·罗斯·斯坦 Delaney Rose Stein
       内森·格雷诺 Nathan Greno
       拜伦·霍华德 Byron Howard
       蒂姆·梅尔滕斯 Tim Mertens


◎标  签 动画 | 迪斯尼 | 童话 | 美国 | 爱情 | 迪士尼 | 喜剧 | 2010

◎简  介  

  女巫Gothel(唐纳·墨菲 Donna Murphy 配音)靠着一朵神奇的金色花朵保持青春。王后重病,国王派人找到了这朵金花给王后治病,王后病愈,生下了一个一头金发的小女孩Rapunzel(曼迪·摩尔 Mandy Moore 配音)。女巫失去金花,却发现小公主的金发有 着同样的魔力,因此她偷走Rapunzel,把她关到森林中的一座没有楼梯高塔之上。
  十八年后,Rapunzel在女巫的抚养下长成一个拥有长长金发的美人,她越发渴望外面的世界,女巫为了自己青春永驻,想方设法把Rapunzel留在身边。一天,窃贼Flynn(扎克瑞·莱维 Zachary Levi 配音)盗取公主王冠后逃入森林,在好奇心趋势下登上了这座神秘的高塔,误打误撞见到了塔中的长发公主。在Flynn的陪伴下,Rapunzel走下高塔,开始了人生和爱情的大冒险。
  本片为迪斯尼公司第50部动画长片,改编自经典格林童话《长发公主》,由迪士尼元老级画师格兰·基恩首次担任动画片导演。

◎获奖情况  

  第83届奥斯卡金像奖(2011)
  最佳原创歌曲(提名) 格伦·斯莱特 / 艾伦·曼肯

  第68届金球奖(2011)
  电影类 最佳动画长片(提名)
  电影类 最佳原创歌曲(提名) 格伦·斯莱特 / 艾伦·曼肯

  第38届动画安妮奖(2011)
  最佳动画长片(提名)
  最佳编剧(提名) 丹·福格尔曼

  第9届华盛顿影评人协会奖(2010)
  最佳动画片(提名)

  第15届圣地亚哥影评人协会奖(2010)
  最佳动画片(提名)

  第23届芝加哥影评人协会奖(2010)
  最佳动画片(提名)

  第10届凤凰城影评人协会奖(2010)
  最佳原创歌曲(提名) 格伦·斯莱特 / 艾伦·曼肯
  最佳动画片(提名)

  第13届美国青少年选择奖(2011)
  最佳动画配音(提名) 扎克瑞·莱维
Video
ID                                       : 1
Format                                   : HEVC
Format/Info                              : High Efficiency Video Coding
HDR format                               : SMPTE ST 2086, HDR10 compatible
Codec ID                                 : V_MPEGH/ISO/HEVC
Duration                                 : 1 h 40 min
Bit rate                                 : 8 068 kb/s
Width                                    : 3 840 pixels
Height                                   : 2 160 pixels
Display aspect ratio                     : 16:9
Frame rate mode                          : Constant
Frame rate                               : 23.976 (24000/1001) FPS
Color space                              : YUV
Chroma subsampling                       : 4:2:0 (Type 2)
Bit depth                                : 10 bits
Bits/(Pixel*Frame)                       : 0.041
Stream size                              : 5.65 GiB (49%)
Writing library                          : x265 3.27fc1f6ef2b96:[Windows][GCC 6.3.0][64 bit] 10bit
Encoding settings                        : cpuid=1111039 / frame-threads=4 / numa-pools=20 / wpp / no-pmode / no-pme / no-psnr / no-ssim / log-level=2 / input-csp=1 / input-res=3840x2160 / interlace=0 / total-frames=144279 / level-idc=51 / high-tier=1 / uhd-bd=1 / ref=4 / no-allow-non-conformance / repeat-headers / annexb / aud / hrd / info / hash=0 / no-temporal-layers / no-open-gop / min-keyint=1 / keyint=24 / gop-lookahead=0 / bframes=4 / b-adapt=2 / b-pyramid / bframe-bias=0 / rc-lookahead=25 / lookahead-slices=4 / scenecut=40 / radl=0 / no-splice / no-intra-refresh / ctu=64 / min-cu-size=8 / rect / no-amp / max-tu-size=32 / tu-inter-depth=1 / tu-intra-depth=1 / limit-tu=0 / rdoq-level=2 / dynamic-rd=0.00 / no-ssim-rd / signhide / no-tskip / nr-intra=0 / nr-inter=0 / no-constrained-intra / no-strong-intra-smoothing / max-merge=3 / limit-refs=3 / limit-modes / me=3 / subme=3 / merange=57 / temporal-mvp / no-frame-dup / no-hme / weightp / no-weightb / no-analyze-src-pics / deblock=-3:-3 / no-sao / no-sao-non-deblock / rd=4 / selective-sao=0 / no-early-skip / rskip / no-fast-intra / no-tskip-fast / no-cu-lossless / no-b-intra / no-splitrd-skip / rdpenalty=0 / psy-rd=2.00 / psy-rdoq=1.00 / no-rd-refine / no-lossless / cbqpoffs=0 / crqpoffs=0 / rc=crf / crf=17.0 / qcomp=0.60 / qpstep=4 / stats-write=0 / stats-read=0 / vbv-maxrate=160000 / vbv-bufsize=160000 / vbv-init=0.9 / crf-max=0.0 / crf-min=0.0 / ipratio=1.40 / pbratio=1.30 / aq-mode=1 / aq-strength=1.00 / cutree / zone-count=0 / no-strict-cbr / qg-size=32 / no-rc-grain / qpmax=69 / qpmin=0 / no-const-vbv / sar=1 / overscan=0 / videoformat=5 / range=0 / colorprim=9 / transfer=16 / colormatrix=9 / chromaloc=1 / chromaloc-top=2 / chromaloc-bottom=2 / display-window=0 / master-display=G(13250,34500)B(7500,3000)R(34000,16000)WP(15635,16450)L(10000000,1) / cll=0,0 / min-luma=0 / max-luma=1023 / log2-max-poc-lsb=8 / vui-timing-info / vui-hrd-info / slices=1 / no-opt-qp-pps / no-opt-ref-list-length-pps / no-multi-pass-opt-rps / scenecut-bias=0.05 / no-opt-cu-delta-qp / no-aq-motion / hdr / hdr-opt / no-dhdr10-opt / no-idr-recovery-sei / analysis-reuse-level=5 / scale-factor=0 / refine-intra=0 / refine-inter=0 / refine-mv=1 / refine-ctu-distortion=0 / no-limit-sao / ctu-info=0 / no-lowpass-dct / refine-analysis-type=0 / copy-pic=1 / max-ausize-factor=1.0 / no-dynamic-refine / no-single-sei / no-hevc-aq / no-svt / no-field / qp-adaptation-range=1.00
Default                                  : Yes
Forced                                   : No
Color range                              : Limited
Color primaries                          : BT.2020
Transfer characteristics                 : PQ
Matrix coefficients                      : BT.2020 non-constant
Mastering display color primaries        : Display P3
Mastering display luminance              : min: 0.0001 cd/m2, max: 1000 cd/m2

Audio #1
ID                                       : 2
Format                                   : MLP FBA 16-ch
Format/Info                              : Meridian Lossless Packing FBA with 16-channel presentation
Commercial name                          : Dolby TrueHD with Dolby Atmos
Codec ID                                 : A_TRUEHD
Duration                                 : 1 h 40 min
Bit rate mode                            : Variable
Bit rate                                 : 7 753 kb/s
Maximum bit rate                         : 9 480 kb/s
Channel(s)                               : 8 channels
Channel layout                           : L R C LFE Ls Rs Lb Rb
Sampling rate                            : 48.0 kHz
Frame rate                               : 1 200.000 FPS (40 SPF)
Compression mode                         : Lossless
Stream size                              : 5.43 GiB (47%)
Language                                 : English
Default                                  : Yes
Forced                                   : No
Number of dynamic objects                : 13
Bed channel count                        : 1 channel
Bed channel configuration                : LFE

Audio #2
ID                                       : 3
Format                                   : AC-3
Format/Info                              : Audio Coding 3
Commercial name                          : Dolby Digital
Codec ID                                 : A_AC3
Duration                                 : 1 h 40 min
Bit rate mode                            : Constant
Bit rate                                 : 640 kb/s
Channel(s)                               : 6 channels
Channel layout                           : L R C LFE Ls Rs
Sampling rate                            : 48.0 kHz
Frame rate                               : 31.250 FPS (1536 SPF)
Bit depth                                : 16 bits
Compression mode                         : Lossy
Stream size                              : 459 MiB (4%)
Language                                 : English
Service kind                             : Complete Main
Default                                  : No
Forced                                   : No

Text #1
ID                                       : 4
Format                                   : PGS
Muxing mode                              : zlib
Codec ID                                 : S_HDMV/PGS
Codec ID/Info                            : Picture based subtitle format used on BDs/HD-DVDs
Duration                                 : 1 h 39 min
Bit rate                                 : 34.2 kb/s
Count of elements                        : 2538
Stream size                              : 24.3 MiB (0%)
Title                                    : SDH
Language                                 : English
Default                                  : No
Forced                                   : No

Text #2
ID                                       : 5
Format                                   : PGS
Muxing mode                              : zlib
Codec ID                                 : S_HDMV/PGS
Codec ID/Info                            : Picture based subtitle format used on BDs/HD-DVDs
Duration                                 : 1 h 39 min
Bit rate                                 : 28.2 kb/s
Count of elements                        : 1850
Stream size                              : 20.0 MiB (0%)
Language                                 : French
Default                                  : No
Forced                                   : No

Text #3
ID                                       : 6
Format                                   : PGS
Muxing mode                              : zlib
Codec ID                                 : S_HDMV/PGS
Codec ID/Info                            : Picture based subtitle format used on BDs/HD-DVDs
Duration                                 : 1 h 39 min
Bit rate                                 : 25.1 kb/s
Count of elements                        : 1814
Stream size                              : 17.8 MiB (0%)
Language                                 : Spanish
Default                                  : No
Forced                                   : No

Text #4
ID                                       : 7
Format                                   : PGS
Muxing mode                              : zlib
Codec ID                                 : S_HDMV/PGS
Codec ID/Info                            : Picture based subtitle format used on BDs/HD-DVDs
Duration                                 : 1 h 30 min
Bit rate                                 : 24.4 kb/s
Count of elements                        : 2014
Stream size                              : 15.7 MiB (0%)
Language                                 : Japanese
Default                                  : No
Forced                                   : No

Menu
00:00:00.000                             : en:Chapter 01
00:08:20.958                             : en:Chapter 02
00:15:43.275                             : en:Chapter 03
00:24:41.021                             : en:Chapter 04
00:34:41.788                             : en:Chapter 05
00:42:30.881                             : en:Chapter 06
00:50:25.939                             : en:Chapter 07
00:59:21.641                             : en:Chapter 08
01:10:35.522                             : en:Chapter 09
01:19:23.216                             : en:Chapter 10
01:25:22.033                             : en:Chapter 11
01:31:20.808                             : en:Chapter 12



                                                                                                                                                                                                        
                                                                                                                                                                                                                                                                                                                                                                                                                                                                                                                                                                                                                                                                                                                                                                                                                           b2c563dc6da50b024d3e7366e2037cd5.torrent (59.38 KB, 下载次数: 0)

回复

使用道具 举报

小黑屋|百度云资源论坛 |网站地图

本网站所有资源来自网络,如无意中侵犯了您的权益,请发邮件至 [email protected],立即清除相关链接

GMT+8, 2019-12-6 13:59 , Processed in 0.090345 second(s), 22 queries .

Powered by Discuz! X3.2

© 2001-2013 Comsenz Inc.

快速回复 返回顶部 返回列表