百度云资源论坛

 找回密码
 立即注册
搜索

赛车总动员/反斗车王 Cars.2006.3D.1080p.BluRay.x264-SPRiNTER 7.94GB

[复制链接]
百度云电影 发表于 2019-10-28 11:45:28 | 显示全部楼层 |阅读模式


帖子完整标题:赛车总动员/反斗车王 Cars.2006.3D.1080p.BluRay.x264-SPRiNTER 7.94GB




◎译  名 赛车总动员 / 反斗车王(港) / 小汽车的故事 / 汽车总动员 / 飞车正传
◎片  名 Cars
◎年  代 2006
◎产  地 美国
◎类  别 喜剧 / 动画 / 冒险
◎语  言 英语 / 意大利语 / 日语 / 依地语
◎上映日期 2006-06-09(美国) / 2006-08-22(中国大陆)
◎IMDb评分  7.1/10 from 335631 users
◎片  长 117分钟
◎导  演 约翰·拉塞特 John Lasseter / 乔·兰福特 Joe Ranft
◎编  剧 约翰·拉塞特 John Lasseter / 乔·兰福特 Joe Ranft / 乔根·克卢宾 Jorgen Klubien / 丹·福格尔曼 Dan Fogelman / 基尔·默里 Kiel Murray / 菲尔·洛林 Phil Lorin / 史蒂夫·波赛尔 Steve Purcell
◎主  演 欧文·威尔逊 Owen Wilson
       保罗·纽曼 Paul Newman
       邦尼·亨特 Bonnie Hunt
       王牌接线员拉里 Larry The Cable Guy
       切奇·马林 Cheech Marin
       托尼·夏尔赫布 Tony Shalhoub
       盖多·克隆尼 Guido Quaroni
       詹妮弗·路易斯 Jenifer Lewis
       保罗·杜利 Paul Dooley
       迈克尔·沃利斯 Michael Wallis
       乔治·卡林 George Carlin
       凯瑟琳·海蒙德 Katherine Helmond
       约翰·拉岑贝格 John Ratzenberger
       乔·兰福特 Joe Ranft
       迈克尔·基顿 Michael Keaton
       伊迪·迈克莱尔 Edie McClurg
       安德鲁·斯坦顿 Andrew Stanton
       小戴尔·恩哈特 Dale Earnhardt Jr.
       迈克尔·舒马赫 Michael Schumacher
       杰·雷诺 Jay Leno
       乔纳斯·里维拉 Jonas Rivera
       卢·罗曼诺 Lou Romano
       艾丽莎·奈特 Elissa Knight
       林赛·柯林斯 Lindsey Collins


◎标  签 动画 | 美国 | Pixar | 迪斯尼 | 喜剧 | 动画片 | 2006 | 美国电影

◎简  介  

  汽车世界中,一年一度的活塞杯再次拉开序幕。红色跑车“闪电”麦坤和“冠军”、“路霸”是冠军最有力的竞争者。作为新人,麦坤具有极高的天赋,同时也是一个目空一切的家伙。经过紧张激烈的对抗,这三辆车同时冲过终点线。由于无法判定最终优胜者,组委会决定一个月后在加州洛杉矶召开一次只有这三辆车参加的殊死战,只有最后的胜者才能捧得活塞杯。
  信心满满麦坤和搭档拖车麦大叔早早启程。但是长时间的疲劳驾驶,令麦大叔不慎将麦坤丢在半路。麦坤东闯西撞,无意间来到了被众车遗忘的油车水镇。因躲避警长的追捕,麦坤毁坏了小镇的马路。在法官哈迪逊韩大夫和律师保时捷莎莉的裁决下,他被迫留在这里修路。短短几天相处,麦坤和小镇的居民渐渐融洽起来,同时他也爱上了美丽的莎莉。只不过,路终有修完的时候,未完的比赛仍在等待着他……

◎获奖情况  

  第79届奥斯卡金像奖(2007)
  最佳动画长片(提名) 约翰·拉塞特
  最佳原创歌曲(提名) 兰迪·纽曼

  第64届金球奖(2007)
  电影类 最佳动画长片

  第34届动画安妮奖(2007)
  最佳动画长片
  最佳导演(提名) 约翰·拉塞特
  最佳编剧(提名) 丹·福格尔曼
  最佳配乐 兰迪·纽曼
  最佳艺术指导(提名) William Cone
  最佳动画角色(提名) 卡洛斯·巴埃纳 / Bobby Podesta
  最佳动画效果(提名) Keith Daniel Klohn / Erdem Taylan
Video
ID                                       : 1
Format                                   : AVC
Format/Info                              : Advanced Video Codec
Format settings                          : CABAC / 5 Ref Frames
Format settings, CABAC                   : Yes
Format settings, Reference frames        : 5 frames
Codec ID                                 : V_MPEG4/ISO/AVC
Duration                                 : 1 h 56 min
Bit rate                                 : 9 100 kb/s
Width                                    : 1 920 pixels
Height                                   : 808 pixels
Display aspect ratio                     : 2.40:1
Frame rate mode                          : Constant
Frame rate                               : 23.976 (24000/1001) FPS
Color space                              : YUV
Chroma subsampling                       : 4:2:0
Bit depth                                : 8 bits
Scan type                                : Progressive
Bits/(Pixel*Frame)                       : 0.245
Stream size                              : 7.42 GiB (93%)
Writing library                          : x264 core 158 r2984 3759fcb
Encoding settings                        : cabac=1 / ref=5 / deblock=1:-3:-3 / analyse=0x3:0x133 / me=umh / subme=9 / psy=1 / psy_rd=1.00:0.00 / mixed_ref=1 / me_range=16 / chroma_me=1 / trellis=2 / 8x8dct=1 / cqm=0 / deadzone=21,11 / fast_pskip=0 / chroma_qp_offset=-2 / threads=12 / lookahead_threads=1 / sliced_threads=0 / nr=0 / decimate=1 / interlaced=0 / bluray_compat=0 / constrained_intra=0 / bframes=3 / b_pyramid=2 / b_adapt=2 / b_bias=0 / direct=3 / weightb=1 / open_gop=0 / weightp=2 / keyint=250 / keyint_min=23 / scenecut=40 / intra_refresh=0 / rc_lookahead=60 / rc=2pass / mbtree=1 / bitrate=9100 / ratetol=1.0 / qcomp=0.60 / qpmin=10 / qpmax=69 / qpstep=4 / cplxblur=20.0 / qblur=0.5 / ip_ratio=1.40 / aq=1:0.70
Default                                  : Yes
Forced                                   : No

Audio
ID                                       : 2
Format                                   : AC-3
Format/Info                              : Audio Coding 3
Commercial name                          : Dolby Digital
Codec ID                                 : A_AC3
Duration                                 : 1 h 56 min
Bit rate mode                            : Constant
Bit rate                                 : 640 kb/s
Channel(s)                               : 6 channels
Channel layout                           : L R C LFE Ls Rs
Sampling rate                            : 48.0 kHz
Frame rate                               : 31.250 FPS (1536 SPF)
Bit depth                                : 16 bits
Compression mode                         : Lossy
Stream size                              : 534 MiB (7%)
Title                                    : English AC3 640 kbps
Language                                 : English
Service kind                             : Complete Main
Default                                  : Yes
Forced                                   : No

Menu
00:00:00.000                             : :
00:09:37.576                             : :
00:13:47.993                             : :
00:16:19.019                             : :
00:19:52.649                             : :
00:24:33.054                             : :
00:27:26.728                             : :
00:28:11.940                             : :
00:29:41.321                             : :
00:33:57.451                             : :
00:35:53.442                             : :
00:41:50.341                             : :
00:45:55.752                             : :
00:48:40.208                             : :
00:50:38.660                             : :
00:54:40.360                             : :
00:57:47.380                             : :
01:01:28.935                             : :
01:02:58.274                             : :
01:05:42.438                             : :
01:07:42.766                             : :
01:09:48.976                             : :
01:11:26.907                             : :
01:15:01.121                             : :
01:15:57.469                             : :
01:20:13.808                             : :
01:22:21.352                             : :
01:24:58.468                             : :
01:27:31.412                             : :
01:32:36.675                             : :
01:46:17.287                             : :
01:48:31.504                             : :



                                                                                                                                                                                                        
                                                                                                                                                                                                                                                                                                                                                                                                                                                                                                                                                                                                                                                                                                                                                                                                                         e0f0446fecc9c428084c21af93042400.torrent (40.34 KB, 下载次数: 0)

回复

使用道具 举报

小黑屋|百度云资源论坛 |网站地图

本网站所有资源来自网络,如无意中侵犯了您的权益,请发邮件至 [email protected],立即清除相关链接

GMT+8, 2019-12-6 14:29 , Processed in 0.090911 second(s), 22 queries .

Powered by Discuz! X3.2

© 2001-2013 Comsenz Inc.

快速回复 返回顶部 返回列表