百度云资源论坛

 找回密码
 立即注册
搜索

[BD-4K] 生活多美好 Its.a.Wonderful.Life.1946.2160p.UHD.BluRay.X265.10bit.HDR.Tru...

[复制链接]
百度云电影 发表于 2019-10-28 11:14:53 | 显示全部楼层 |阅读模式


帖子完整标题:生活多美好 Its.a.Wonderful.Life.1946.2160p.UHD.BluRay.X265.10bit.HDR.TrueHD.2.0-AViATOR 30.01GB




◎译  名 生活多美好 / Frank Capra's It's a Wonderful Life / 哀乐人生 / 美好人生 / 美好生活 / 风云人物
◎片  名 It's a Wonderful Life
◎年  代 1946
◎产  地 美国
◎类  别 剧情 / 爱情 / 奇幻
◎语  言 英语 / 法语
◎上映日期 1946-12-20
◎IMDb评分  8.6/10 from 362631 users
◎片  长 130 分钟
◎导  演 弗兰克·卡普拉 Frank Capra
◎编  剧 弗朗西丝·古德里奇 Frances Goodrich / 艾伯特·哈克特 Albert Hackett / 弗兰克·卡普拉 Frank Capra / 乔·斯沃林 Jo Swerling / Philip Van Doren Stern / 迈克尔·威尔逊 Michael Wilson
◎主  演 詹姆斯·斯图尔特 James Stewart
       唐娜·里德 Donna Reed
       莱昂纳尔·巴里摩尔 Lionel Barrymore
       托马斯·米切尔 Thomas Mitchell
       亨利·崔佛斯 Henry Travers
       比尤拉·邦蒂 Beulah Bondi
       弗兰克·费伦 Frank Faylen
       沃德·邦德 Ward Bond
       格洛丽亚·格雷厄姆 Gloria Grahame
       H.B.沃纳 H.B. Warner
       弗兰克·艾伯森 Frank Albertson
       托德·卡恩茨 Todd Karns
       萨缪尔·S·辛兹 Samuel S. Hinds
       玛丽特琳 Mary Treen
       Virginia Patton
       查尔斯·威廉姆斯 Charles Williams
       Sarah Edwards
       William Edmunds
       莉莲·伦道夫 Lillian Randolph
       Argentina Brunetti
       Robert J. Anderson
       Ronnie Ralph
       Jeanine Ann Roose
       Georgie Nokes
       Sheldon Leonard
       Frank Hagney
       雷·沃克 Ray Walker
       查尔斯·莱恩 Charles Lane
       爱德华·基恩 Edward Keane
       Carol Coombs
       卡罗琳·格兰姆斯 Karolyn Grimes
       Larry Simms
       Jimmy Hawkins
       简·阿克 Jean Acker
       厄尼·亚当斯 Ernie Adams
       曼雅·安德烈 Monya Andre
       斯坦利·安德鲁斯 Stanley Andrews
       Sam Ash
       Jack Bailey
       Brooks Benedict
       Joseph E. Bernard
       阿尔·布里奇 Al Bridge
       玛丽安·卡尔 Marian Carr
       阿德里亚娜·卡塞洛蒂 Adriana Caselotti
       莱恩·钱德勒 Lane Chandler
       Michael Chapin
       Tom Chatterton
       Jack Cheatham
       Harry Cheshire
       Edward Clark
       Tom Coleman
       埃伦·科比 Ellen Corby
       Helen Dickson
       Dick Elliott
       Tom Fadden
       Frank Fenton
       埃迪·凡特思顿 Eddie Fetherston
       Sam Flint
       Dick Gordon
       Joseph Granby
       查尔斯·霍尔顿 Charles Halton
       Herbert Heywood
       Harry Holman
       Art Howard
       Bert Howard
       Arthur Stuart Hull
       John Indrisano
       艾迪·凯恩 Eddie Kane
       Carl Kent
       Milton Kibbee
       Effie Laird
       迈克·拉里 Mike Lally
       Harold Landon
       Meade 'Lux' Lewis
       Jack Lomas
       J·法瑞尔·麦克唐纳 J. Farrell MacDonald
       Wilbur Mack
       Charles Meakin
       伯特·穆尔豪斯 Bert Moorhouse
       Evelyn Moriarty
       Philip Morris
       George Noisom
       弗兰克·奥康纳 Frank O'Connor


◎标  签 美国 | 励志 | 经典 | 美国电影 | 喜剧 | 1946 | 温情 | 爱情

◎简  介  

  乔治(詹姆斯?斯图尔特 James Stewart 饰)在圣诞节前准备自杀,这时上帝传来旨意,派天使拯救他,并让他了解到自己一生的使命——拯救那些不幸的人。乔治小时候左耳有疾,在贝德福德镇上的一家药店帮工。他很机灵,深得老板器重,同时也很招女孩喜欢。某日,老板接到爱子死亡的电报,悲痛欲绝,配错了药,幸亏乔治才化险为夷。乔治从小嫉恶如仇,尤其看不惯富人专横跋扈。长大后,乔治一表人材,准备去读大学。这时,他的父亲去世了,他子承父业,协助叔父料理公司事务。然而公司经营状况不佳,在董事会会议上面临破产。如果公司破产,小镇将会有很多家庭陷入困境。乔治力排众议,说服了董事会,但是条件是他要担任董事会秘书长。这与他的大学梦相去甚远。而且,此时他还陷入了对一个女孩的爱恋之中……

◎获奖情况  

  第19届奥斯卡金像奖(1947)
  最佳影片(提名)
  最佳导演(提名) 弗兰克·卡普拉
  最佳男主角(提名) 詹姆斯·斯图尔特
  最佳剪辑(提名) 威廉·霍恩贝克
  最佳录音(提名) 约翰·奥尔堡

  第4届金球奖(1947)
  电影类 最佳导演 弗兰克·卡普拉
Video
ID                                       : 1
Format                                   : HEVC
Format/Info                              : High Efficiency Video Coding
HDR format                               : SMPTE ST 2086, HDR10 compatible
Codec ID                                 : V_MPEGH/ISO/HEVC
Duration                                 : 2 h 10 min
Bit rate                                 : 31.1 Mb/s
Width                                    : 2 962 pixels
Height                                   : 2 160 pixels
Display aspect ratio                     : 1.371
Frame rate mode                          : Constant
Frame rate                               : 23.976 (24000/1001) FPS
Color space                              : YUV
Chroma subsampling                       : 4:2:0 (Type 2)
Bit depth                                : 10 bits
Bits/(Pixel*Frame)                       : 0.203
Stream size                              : 28.4 GiB (95%)
Writing library                          : x265 3.27fc1f6ef2b96:[Windows][GCC 6.3.0][64 bit] 10bit
Encoding settings                        : cpuid=1111039 / frame-threads=4 / numa-pools=20 / wpp / no-pmode / no-pme / no-psnr / no-ssim / log-level=2 / input-csp=1 / input-res=2962x2160 / interlace=0 / total-frames=187791 / level-idc=51 / high-tier=1 / uhd-bd=0 / ref=4 / no-allow-non-conformance / repeat-headers / annexb / aud / hrd / info / hash=0 / no-temporal-layers / no-open-gop / min-keyint=1 / keyint=24 / gop-lookahead=0 / bframes=4 / b-adapt=2 / b-pyramid / bframe-bias=0 / rc-lookahead=25 / lookahead-slices=4 / scenecut=40 / radl=0 / no-splice / no-intra-refresh / ctu=64 / min-cu-size=8 / rect / no-amp / max-tu-size=32 / tu-inter-depth=1 / tu-intra-depth=1 / limit-tu=0 / rdoq-level=2 / dynamic-rd=0.00 / no-ssim-rd / signhide / no-tskip / nr-intra=0 / nr-inter=0 / no-constrained-intra / no-strong-intra-smoothing / max-merge=3 / limit-refs=3 / limit-modes / me=3 / subme=3 / merange=57 / temporal-mvp / no-frame-dup / no-hme / weightp / no-weightb / no-analyze-src-pics / deblock=-3:-3 / no-sao / no-sao-non-deblock / rd=4 / selective-sao=0 / no-early-skip / rskip / no-fast-intra / no-tskip-fast / no-cu-lossless / no-b-intra / no-splitrd-skip / rdpenalty=0 / psy-rd=2.00 / psy-rdoq=1.00 / no-rd-refine / no-lossless / cbqpoffs=0 / crqpoffs=0 / rc=crf / crf=19.5 / qcomp=0.60 / qpstep=4 / stats-write=0 / stats-read=0 / vbv-maxrate=160000 / vbv-bufsize=160000 / vbv-init=0.9 / crf-max=0.0 / crf-min=0.0 / ipratio=1.40 / pbratio=1.30 / aq-mode=1 / aq-strength=1.00 / cutree / zone-count=0 / no-strict-cbr / qg-size=32 / no-rc-grain / qpmax=69 / qpmin=0 / no-const-vbv / sar=1 / overscan=0 / videoformat=5 / range=0 / colorprim=9 / transfer=16 / colormatrix=9 / chromaloc=1 / chromaloc-top=2 / chromaloc-bottom=2 / display-window=0 / master-display=G(8500,39850)B(6550,2300)R(35400,14600)WP(15635,16450)L(10000000,1) / cll=0,0 / min-luma=0 / max-luma=1023 / log2-max-poc-lsb=8 / vui-timing-info / vui-hrd-info / slices=1 / no-opt-qp-pps / no-opt-ref-list-length-pps / no-multi-pass-opt-rps / scenecut-bias=0.05 / no-opt-cu-delta-qp / no-aq-motion / hdr / hdr-opt / no-dhdr10-opt / no-idr-recovery-sei / analysis-reuse-level=5 / scale-factor=0 / refine-intra=0 / refine-inter=0 / refine-mv=1 / refine-ctu-distortion=0 / no-limit-sao / ctu-info=0 / no-lowpass-dct / refine-analysis-type=0 / copy-pic=1 / max-ausize-factor=1.0 / no-dynamic-refine / no-single-sei / no-hevc-aq / no-svt / no-field / qp-adaptation-range=1.00
Default                                  : Yes
Forced                                   : No
Color range                              : Limited
Color primaries                          : BT.2020
Transfer characteristics                 : PQ
Matrix coefficients                      : BT.2020 non-constant
Mastering display color primaries        : BT.2020
Mastering display luminance              : min: 0.0001 cd/m2, max: 1000 cd/m2

Audio #1
ID                                       : 2
Format                                   : MLP FBA
Format/Info                              : Meridian Lossless Packing FBA
Commercial name                          : Dolby TrueHD
Codec ID                                 : A_TRUEHD
Duration                                 : 2 h 10 min
Bit rate mode                            : Variable
Bit rate                                 : 677 kb/s
Maximum bit rate                         : 1 080 kb/s
Channel(s)                               : 2 channels
Channel layout                           : L R
Sampling rate                            : 48.0 kHz
Frame rate                               : 1 200.000 FPS (40 SPF)
Compression mode                         : Lossless
Stream size                              : 632 MiB (2%)
Language                                 : English
Default                                  : Yes
Forced                                   : No

Audio #2
ID                                       : 3
Format                                   : AC-3
Format/Info                              : Audio Coding 3
Commercial name                          : Dolby Digital
Codec ID                                 : A_AC3
Duration                                 : 2 h 10 min
Bit rate mode                            : Constant
Bit rate                                 : 640 kb/s
Channel(s)                               : 2 channels
Channel layout                           : L R
Sampling rate                            : 48.0 kHz
Frame rate                               : 31.250 FPS (1536 SPF)
Bit depth                                : 16 bits
Compression mode                         : Lossy
Stream size                              : 598 MiB (2%)
Language                                 : English
Service kind                             : Complete Main
Default                                  : No
Forced                                   : No

Text #1
ID                                       : 4
Format                                   : PGS
Muxing mode                              : zlib
Codec ID                                 : S_HDMV/PGS
Codec ID/Info                            : Picture based subtitle format used on BDs/HD-DVDs
Duration                                 : 2 h 8 min
Bit rate                                 : 55.2 kb/s
Count of elements                        : 4694
Stream size                              : 50.7 MiB (0%)
Language                                 : English
Default                                  : No
Forced                                   : No

Text #2
ID                                       : 5
Format                                   : PGS
Muxing mode                              : zlib
Codec ID                                 : S_HDMV/PGS
Codec ID/Info                            : Picture based subtitle format used on BDs/HD-DVDs
Duration                                 : 2 h 8 min
Bit rate                                 : 59.0 kb/s
Count of elements                        : 5002
Stream size                              : 54.2 MiB (0%)
Title                                    : SDH
Language                                 : English
Default                                  : No
Forced                                   : No

Text #3
ID                                       : 6
Format                                   : PGS
Muxing mode                              : zlib
Codec ID                                 : S_HDMV/PGS
Codec ID/Info                            : Picture based subtitle format used on BDs/HD-DVDs
Duration                                 : 2 h 9 min
Bit rate                                 : 41.1 kb/s
Count of elements                        : 4384
Stream size                              : 38.0 MiB (0%)
Language                                 : Danish
Default                                  : No
Forced                                   : No

Text #4
ID                                       : 7
Format                                   : PGS
Muxing mode                              : zlib
Codec ID                                 : S_HDMV/PGS
Codec ID/Info                            : Picture based subtitle format used on BDs/HD-DVDs
Duration                                 : 2 h 9 min
Bit rate                                 : 55.2 kb/s
Count of elements                        : 4764
Stream size                              : 51.0 MiB (0%)
Language                                 : German
Default                                  : No
Forced                                   : No

Text #5
ID                                       : 8
Format                                   : PGS
Muxing mode                              : zlib
Codec ID                                 : S_HDMV/PGS
Codec ID/Info                            : Picture based subtitle format used on BDs/HD-DVDs
Duration                                 : 2 h 10 min
Bit rate                                 : 43.4 kb/s
Count of elements                        : 4376
Stream size                              : 40.4 MiB (0%)
Language                                 : Spanish
Default                                  : No
Forced                                   : No

Text #6
ID                                       : 9
Format                                   : PGS
Muxing mode                              : zlib
Codec ID                                 : S_HDMV/PGS
Codec ID/Info                            : Picture based subtitle format used on BDs/HD-DVDs
Duration                                 : 2 h 10 min
Bit rate                                 : 46.4 kb/s
Count of elements                        : 4442
Stream size                              : 43.2 MiB (0%)
Language                                 : French
Default                                  : No
Forced                                   : No

Text #7
ID                                       : 10
Format                                   : PGS
Muxing mode                              : zlib
Codec ID                                 : S_HDMV/PGS
Codec ID/Info                            : Picture based subtitle format used on BDs/HD-DVDs
Duration                                 : 2 h 9 min
Bit rate                                 : 40.8 kb/s
Count of elements                        : 4380
Stream size                              : 37.7 MiB (0%)
Language                                 : Italian
Default                                  : No
Forced                                   : No

Text #8
ID                                       : 11
Format                                   : PGS
Muxing mode                              : zlib
Codec ID                                 : S_HDMV/PGS
Codec ID/Info                            : Picture based subtitle format used on BDs/HD-DVDs
Duration                                 : 2 h 8 min
Bit rate                                 : 27.8 kb/s
Count of elements                        : 3708
Stream size                              : 25.4 MiB (0%)
Language                                 : Japanese
Default                                  : No
Forced                                   : No

Text #9
ID                                       : 12
Format                                   : PGS
Muxing mode                              : zlib
Codec ID                                 : S_HDMV/PGS
Codec ID/Info                            : Picture based subtitle format used on BDs/HD-DVDs
Duration                                 : 2 h 9 min
Bit rate                                 : 40.6 kb/s
Count of elements                        : 3540
Stream size                              : 37.5 MiB (0%)
Language                                 : Dutch
Default                                  : No
Forced                                   : No

Text #10
ID                                       : 13
Format                                   : PGS
Muxing mode                              : zlib
Codec ID                                 : S_HDMV/PGS
Codec ID/Info                            : Picture based subtitle format used on BDs/HD-DVDs
Duration                                 : 2 h 9 min
Bit rate                                 : 40.8 kb/s
Count of elements                        : 3614
Stream size                              : 37.7 MiB (0%)
Language                                 : Norwegian
Default                                  : No
Forced                                   : No

Text #11
ID                                       : 14
Format                                   : PGS
Muxing mode                              : zlib
Codec ID                                 : S_HDMV/PGS
Codec ID/Info                            : Picture based subtitle format used on BDs/HD-DVDs
Duration                                 : 2 h 9 min
Bit rate                                 : 44.6 kb/s
Count of elements                        : 4210
Stream size                              : 41.3 MiB (0%)
Language                                 : Finnish
Default                                  : No
Forced                                   : No

Text #12
ID                                       : 15
Format                                   : PGS
Muxing mode                              : zlib
Codec ID                                 : S_HDMV/PGS
Codec ID/Info                            : Picture based subtitle format used on BDs/HD-DVDs
Duration                                 : 2 h 9 min
Bit rate                                 : 34.5 kb/s
Count of elements                        : 3576
Stream size                              : 31.9 MiB (0%)
Language                                 : Swedish
Default                                  : No
Forced                                   : No

Text #13
ID                                       : 16
Format                                   : PGS
Muxing mode                              : zlib
Codec ID                                 : S_HDMV/PGS
Codec ID/Info                            : Picture based subtitle format used on BDs/HD-DVDs
Duration                                 : 2 h 7 min
Bit rate                                 : 336 b/s
Count of elements                        : 40
Stream size                              : 315 KiB (0%)
Language                                 : Japanese
Default                                  : No
Forced                                   : No

Menu
00:00:00.000                             : :Chapter 01
00:03:43.306                             : :Chapter 02
00:05:25.617                             : :Chapter 03
00:07:46.549                             : :Chapter 04
00:11:39.991                             : :Chapter 05
00:14:17.732                             : :Chapter 06
00:19:03.559                             : :Chapter 07
00:21:14.732                             : :Chapter 08
00:24:03.984                             : :Chapter 09
00:35:16.323                             : :Chapter 10
00:42:32.008                             : :Chapter 11
00:50:16.805                             : :Chapter 12
01:00:12.192                             : :Chapter 13
01:03:50.243                             : :Chapter 14
01:13:55.806                             : :Chapter 15
01:16:51.065                             : :Chapter 16
01:19:07.993                             : :Chapter 17
01:23:00.559                             : :Chapter 18
01:30:24.753                             : :Chapter 19
01:32:20.618                             : :Chapter 20
01:35:34.854                             : :Chapter 21
01:38:39.956                             : :Chapter 22
01:39:45.813                             : :Chapter 23
01:46:45.190                             : :Chapter 24
01:52:47.928                             : :Chapter 25
02:01:25.069                             : :Chapter 26
02:03:36.451                             : :Chapter 27
02:08:10.182                             : :Chapter 28



                                                                                                                                                                                                        
                                                                                                                                                                                                                                                                                                                                                                                                                                                                                                                                                                                                                                                                                                                                                                                                                           359ed9011e571bc62a833b3ba0b446d8.torrent (75.74 KB, 下载次数: 0)

回复

使用道具 举报

小黑屋|百度云资源论坛 |网站地图

本网站所有资源来自网络,如无意中侵犯了您的权益,请发邮件至 [email protected],立即清除相关链接

GMT+8, 2019-12-9 18:10 , Processed in 0.106167 second(s), 22 queries .

Powered by Discuz! X3.2

© 2001-2013 Comsenz Inc.

快速回复 返回顶部 返回列表