百度云资源论坛

 找回密码
 立即注册
搜索

年度之战:梦之队/BOTY世界Battle Battle.Of.The.Year.2013.3D.1080p.BluR...

[复制链接]
百度云电影 发表于 2019-10-4 21:43:05 | 显示全部楼层 |阅读模式


帖子完整标题:年度之战:梦之队/BOTY世界Battle Battle.Of.The.Year.2013.3D.1080p.BluRay.x264-GUACAMOLE 8.74GB




◎译  名 年度之战:梦之队 / BOTY世界Battle(台) / 年度街舞大战
◎片  名 Battle of the Year: The Dream Team
◎年  代 2013
◎产  地 美国
◎类  别 歌舞
◎语  言 英语
◎上映日期 2013-09-20(美国)
◎IMDb评分  5.0/10 from 8824 users
◎片  长 109分钟
◎导  演 本森·李 Benson Lee
◎编  剧 Chris Parker / Brin Hill
◎主  演 乔什·哈洛威 Josh Holloway
       拉兹·阿隆索 Laz Alonso
       乔希·佩克 Josh Peck
       Caity Lotz
       克里斯·布朗 Chris Brown


◎标  签 美国 | 歌舞 | 舞蹈 | 励志 | 青春 | 2013 | 美国电影 | Bboy

◎简  介  

  根据2005年一群男孩参加奥林匹克大赛街舞"年度之战"的经历改编,讲述了乔什·哈洛威饰演的教练如何带领他的队伍夺魁的故事。

◎获奖情况  

  第34届金酸莓奖(2014)
  最差男配角(提名) 克里斯·布朗
Video
ID                                       : 1
Format                                   : AVC
Format/Info                              : Advanced Video Codec
MultiView_Count                          : 2
MultiView_Layout                         : Side by Side (left eye first)
Format settings                          : CABAC / 4 Ref Frames
Format settings, CABAC                   : Yes
Format settings, Reference frames        : 4 frames
Codec ID                                 : V_MPEG4/ISO/AVC
Duration                                 : 1 h 49 min
Bit rate                                 : 9 876 kb/s
Width                                    : 1 920 pixels
Height                                   : 1 040 pixels
Display aspect ratio                     : 1.85:1
Frame rate mode                          : Constant
Frame rate                               : 23.976 FPS
Color space                              : YUV
Chroma subsampling                       : 4:2:0
Bit depth                                : 8 bits
Scan type                                : Progressive
Bits/(Pixel*Frame)                       : 0.206
Stream size                              : 7.57 GiB (87%)
Writing library                          : x264 core 157 r2969 d4099dd
Encoding settings                        : cabac=1 / ref=4 / deblock=1:-1:-1 / analyse=0x3:0x113 / me=umh / subme=8 / psy=1 / psy_rd=1.00:0.00 / mixed_ref=1 / me_range=16 / chroma_me=1 / trellis=2 / 8x8dct=1 / cqm=0 / deadzone=21,11 / fast_pskip=0 / chroma_qp_offset=-2 / threads=24 / lookahead_threads=4 / sliced_threads=0 / nr=0 / decimate=1 / interlaced=0 / bluray_compat=0 / constrained_intra=0 / bframes=5 / b_pyramid=2 / b_adapt=1 / b_bias=0 / direct=3 / weightb=1 / open_gop=0 / weightp=1 / keyint=250 / keyint_min=23 / scenecut=40 / intra_refresh=0 / rc_lookahead=40 / rc=2pass / mbtree=1 / bitrate=9876 / ratetol=1.0 / qcomp=0.60 / qpmin=0 / qpmax=69 / qpstep=4 / cplxblur=20.0 / qblur=0.5 / ip_ratio=1.40 / aq=1:1.00
Language                                 : English
Default                                  : Yes
Forced                                   : No

Audio
ID                                       : 2
Format                                   : DTS
Format/Info                              : Digital Theater Systems
Codec ID                                 : A_DTS
Duration                                 : 1 h 49 min
Bit rate mode                            : Constant
Bit rate                                 : 1 509 kb/s
Channel(s)                               : 6 channels
Channel layout                           : C L R Ls Rs LFE
Sampling rate                            : 48.0 kHz
Frame rate                               : 93.750 FPS (512 SPF)
Bit depth                                : 24 bits
Compression mode                         : Lossy
Stream size                              : 1.16 GiB (13%)
Language                                 : English
Default                                  : Yes
Forced                                   : No

Text
ID                                       : 3
Format                                   : VobSub
Codec ID                                 : S_VOBSUB
Codec ID/Info                            : Picture based subtitle format used on DVDs
Duration                                 : 19 min 11 s
Bit rate                                 : 1 138 b/s
Count of elements                        : 8
Stream size                              : 160 KiB (0%)
Language                                 : English
Default                                  : Yes
Forced                                   : Yes

Menu
00:00:00.000                             : :Kapitel 01
00:06:29.055                             : :Kapitel 02
00:14:23.988                             : :Kapitel 03
00:21:34.376                             : :Kapitel 04
00:27:32.150                             : :Kapitel 05
00:35:15.905                             : :Kapitel 06
00:40:19.834                             : :Kapitel 07
00:47:32.016                             : :Kapitel 08
00:55:42.089                             : :Kapitel 09
01:00:01.056                             : :Kapitel 10
01:04:58.686                             : :Kapitel 11
01:12:07.073                             : :Kapitel 12
01:21:09.448                             : :Kapitel 13
01:29:05.757                             : :Kapitel 14
01:33:02.368                             : :Kapitel 15
01:39:49.442                             : :Kapitel 16



                                                                                                                                                                                                        
                                                                                                                                                                                                                                                                                                                                                                                                                                                                                                                                                                                                                                                                                                                                                                                                                                                       82c4ff6fd185a0be120f74a0f064a651.torrent (44.46 KB, 下载次数: 0)

回复

使用道具 举报

小黑屋|百度云资源论坛 |网站地图

本网站所有资源来自网络,如无意中侵犯了您的权益,请发邮件至 [email protected],立即清除相关链接

GMT+8, 2020-9-20 03:45 , Processed in 0.104084 second(s), 22 queries .

Powered by Discuz! X3.2

© 2001-2013 Comsenz Inc.

快速回复 返回顶部 返回列表