西西论坛

 找回密码
 立即注册
搜索

[BT下载]复仇者联盟3:无限战争 2018.1080p.3D.BluRay.Half-OU.x264.DTS...

[复制链接]
电影首发 发表于 2018-11-9 20:56:23 | 显示全部楼层 |阅读模式



译  名 复仇者联盟3:无限战争/复仇者联盟3:无限之战(港)/复仇者联盟:无限之战(台)/复仇者联盟3:无尽之战/复联3/妇联3(豆友译名)/复仇者联盟3:灭霸传(豆友译名)
片  名 Avengers: Infinity War
年  代 2018
产  地 美国
类  别 动作/科幻/奇幻/冒险
语  言 英语
上映日期 2018-04-23(加州首映)/2018-04-27(美国)/2018-05-11(中国大陆)
IMDb评分  8.7/10 from 408,337 users
西西论坛 http://www.xixi16.com/
片  长 150分钟
导  演 安东尼·卢素 Anthony Russo / 乔·卢素 Joe Russo
主  演 小罗伯特·唐尼 Robert Downey Jr.
      克里斯·海姆斯沃斯 Chris Hemsworth
      克里斯·埃文斯 Chris Evans
      马克·鲁弗洛 Mark Ruffalo
      乔什·布洛林 Josh Brolin
      佐伊·索尔达娜 Zoe Saldana
      本尼迪克特·康伯巴奇 Benedict Cumberbatch
      克里斯·普拉特 Chris Pratt
      汤姆·霍兰德 Tom Holland
      伊丽莎白·奥尔森 Elizabeth Olsen
      保罗·贝坦尼 Paul Bettany
      斯嘉丽·约翰逊 Scarlett Johansson
      查德维克·博斯曼 Chadwick Boseman
      塞巴斯蒂安·斯坦 Sebastian Stan
      唐·钱德尔 Don Cheadle
      汤姆·希德勒斯顿 Tom Hiddleston
      安东尼·麦凯 Anthony Mackie
      本尼迪克特·王 Benedict Wong
      戴夫·巴蒂斯塔 Dave Bautista
      布莱德利·库珀 Bradley Cooper
      范·迪塞尔 Vin Diesel
      凯伦·吉兰 Karen Gillan
      利蒂希娅·赖特 Letitia Wright
      庞·克莱门捷夫 Pom Klementieff
      凯莉·库恩 Carrie Coon
      汤姆-沃恩-劳勒 Tom Vaughan-Lawlor
      海登·瓦尔希 Hynden Walch
      迈克尔·詹姆斯·肖 Michael James Shaw
      泰瑞·诺塔里 Terry Notary
      本尼西奥·德尔·托罗 Benicio Del Toro
      彼特·丁拉基 Peter Dinklage
      罗斯·马昆德 Ross Marquand
      丹娜·奎里拉 Danai Gurira
      温斯顿·杜克 Winston Duke
      弗洛伦丝·卡松巴 Florence Kasumba
      塞缪尔·杰克逊 Samuel L. Jackson
      雅各布·巴特朗 Jacob Batalon
      斯坦·李 Stan Lee


简  介


  《复仇者联盟3:无限战争》是漫威电影宇宙10周年的历史性集结,将为影迷们带来史诗版的终极对决。面对灭霸突然发起的闪电袭击,复仇者联盟及其所有超级英雄盟友必须全力以赴,才能阻止他对全宇宙造成毁灭性的打击。


获奖情况


  第4届豆瓣电影年度榜单  (2017)
  最值得期待的外语电影




Video
ID : 1
Format : AVC
Format/Info : Advanced Video Codec
Format profile : Hig4.1
Format settings : CABAC / 3 Ref Frames
Format settings, CABAC : Yes
Format settings, ReFrames : 3 frames
Codec ID : V_MPEG4/ISO/AVC
Duration : 2 h 29 min
Bit rate : 16.0 Mb/s
Width : 1 920 pixels
Height : 1 080 pixels
Display aspect ratio : 16:9
Frame rate mode : Constant
Frame rate : 23.976 (24000/1001) FPS
Color space : YUV
Chroma subsampling : 4:2:0
Bit depth : 8 bits
Scan type : Progressive
Bits/(Pixel*Frame) : 0.322
Stream size : 16.6 GiB (65%)
Title : Avengers.Infinity.War.2018.1080p.3D.BluRay.Half-OU.x264.DTS-HD.MA.7.1-FGT
Writing library : x264 core 148
Encoding settings : cabac=1 / ref=3 / deblock=1:-1:-1 / analyse=0x3:0 / me=hex / subme=5 / psy=1 / psy_rd=1.00:0.00 / mixed_ref=0 / me_range=16 / chroma_me=1 / trellis=1 / 8x8dct=1 / cqm=0 / deadzone=21,11 / fast_pskip=0 / chroma_qp_offset=0 / threads=24 / lookahead_threads=6 / sliced_threads=0 / nr=0 / decimate=1 / interlaced=0 / bluray_compat=0 / constrained_intra=0 / bframes=2 / b_pyramid=0 / b_adapt=1 / b_bias=0 / direct=1 / weightb=0 / open_gop=0 / weightp=0 / keyint=24 / keyint_min=2 / scenecut=40 / intra_refresh=0 / rc=abr / mbtree=0 / bitrate=16000 / ratetol=1.0 / qcomp=0.60 / qpmin=0 / qpmax=69 / qpstep=4 / ip_ratio=1.40 / pb_ratio=1.30 / aq=1:1.00
Default : Yes
Forced : No
Color range : Limited
Color primaries : BT.709
Transfer characteristics : BT.709
Matrix coefficients : BT.709

Audio #1
ID : 2
Format : DTS
Format/Info : Digital Theater Systems
Format profile : MA / Core
Codec ID : A_DTS
Duration : 2 h 29 min
Bit rate mode : Variable / Constant
Bit rate : 4 901 kb/s / 1 509 kb/s
Channel(s) : 8 channels / 6 channels
Channel positions : Front: L C R, Side: L R, Back: L R, LFE / Front: L C R, Side: L R, LFE
Sampling rate : 48.0 kHz
Frame rate : 93.750 FPS (512 SPF)
Bit depth : 24 bits
Compression mode : Lossless / Lossy
Stream size : 5.11 GiB (20%)
Title : Avengers.Infinity.War.2018.1080p.3D.BluRay.Half-OU.x264.DTS-HD.MA.7.1-FGT
Language : English
Default : Yes
Forced : No

Audio #2
ID : 3
Format : AC-3
Format/Info : Audio Coding 3
Codec ID : A_AC3
Duration : 2 h 29 min
Bit rate mode : Constant
Bit rate : 320 kb/s
Channel(s) : 2 channels
Channel positions : Front: L R
Sampling rate : 48.0 kHz
Frame rate : 31.250 FPS (1536 SPF)
Bit depth : 16 bits
Compression mode : Lossy
Stream size : 342 MiB (1%)
Title : Avengers.Infinity.War.2018.1080p.3D.BluRay.Half-OU.x264.DTS-HD.MA.7.1-FGT
Language : English
Service kind : Complete Main
Default : No
Forced : No

Audio #3
ID : 4
Format : E-AC-3
Format/Info : Enhanced Audio Coding 3
Codec ID : A_EAC3
Duration : 2 h 29 min
Bit rate mode : Constant
Bit rate : 500 b/s
Channel(s) : 8 channels
Channel(s)_Original : 6 channels
Channel positions : Front: L C R, Side: L R, LFE
Sampling rate : 48.0 kHz
Frame rate : 187.500 FPS (256 SPF)
Compression mode : Lossy
Stream size : 957 MiB (4%)
Title : Avengers.Infinity.War.2018.1080p.3D.BluRay.Half-OU.x264.DTS-HD.MA.7.1-FGT
Language : French
Service kind : Complete Main
Default : No
Forced : No

Audio #4
ID : 5
Format : E-AC-3
Format/Info : Enhanced Audio Coding 3
Codec ID : A_EAC3
Duration : 2 h 29 min
Bit rate mode : Constant
Bit rate : 500 b/s
Channel(s) : 8 channels
Channel(s)_Original : 6 channels
Channel positions : Front: L C R, Side: L R, LFE
Sampling rate : 48.0 kHz
Frame rate : 187.500 FPS (256 SPF)
Compression mode : Lossy
Stream size : 957 MiB (4%)
Title : Avengers.Infinity.War.2018.1080p.3D.BluRay.Half-OU.x264.DTS-HD.MA.7.1-FGT
Language : German
Service kind : Complete Main
Default : No
Forced : No

Audio #5
ID : 6
Format : DTS
Format/Info : Digital Theater Systems
Codec ID : A_DTS
Duration : 2 h 29 min
Bit rate mode : Constant
Bit rate : 1 509 kb/s
Channel(s) : 6 channels
Channel positions : Front: L C R, Side: L R, LFE
Sampling rate : 48.0 kHz
Frame rate : 93.750 FPS (512 SPF)
Bit depth : 24 bits
Compression mode : Lossy
Stream size : 1.57 GiB (6%)
Title : Avengers.Infinity.War.2018.1080p.3D.BluRay.Half-OU.x264.DTS-HD.MA.7.1-FGT
Language : English
Default : No
Forced : No

Text #1
ID : 7
Format : PGS
Muxing mode : zlib
Codec ID : S_HDMV/PGS
Codec ID/Info : Picture based subtitle format used on BDs/HD-DVDs
Duration : 2 h 28 min
Bit rate : 43.0 kb/s
Count of elements : 4134
Stream size : 45.6 MiB (0%)
Title : English-PGS
Language : English
Default : Yes
Forced : No

Text #2
ID : 8
Format : PGS
Muxing mode : zlib
Codec ID : S_HDMV/PGS
Codec ID/Info : Picture based subtitle format used on BDs/HD-DVDs
Duration : 2 h 28 min
Bit rate : 28.9 kb/s
Count of elements : 2988
Stream size : 30.8 MiB (0%)
Title : French-PGS
Language : French
Default : No
Forced : No

Text #3
ID : 9
Format : PGS
Muxing mode : zlib
Codec ID : S_HDMV/PGS
Codec ID/Info : Picture based subtitle format used on BDs/HD-DVDs
Duration : 2 h 27 min
Bit rate : 31.7 kb/s
Count of elements : 2962
Stream size : 33.5 MiB (0%)
Title : German-PGS
Language : German
Default : No
Forced : No

Text #4
ID : 10
Format : PGS
Muxing mode : zlib
Codec ID : S_HDMV/PGS
Codec ID/Info : Picture based subtitle format used on BDs/HD-DVDs
Duration : 2 h 28 min
Bit rate : 30.7 kb/s
Count of elements : 2482
Stream size : 32.7 MiB (0%)
Title : Danish-PGS
Language : Danish
Default : No
Forced : No

Text #5
ID : 11
Format : PGS
Muxing mode : zlib
Codec ID : S_HDMV/PGS
Codec ID/Info : Picture based subtitle format used on BDs/HD-DVDs
Duration : 2 h 28 min
Bit rate : 31.7 kb/s
Count of elements : 2722
Stream size : 33.8 MiB (0%)
Title : Dutch-PGS
Language : Dutch
Default : No
Forced : No

Text #6
ID : 12
Format : PGS
Muxing mode : zlib
Codec ID : S_HDMV/PGS
Codec ID/Info : Picture based subtitle format used on BDs/HD-DVDs
Duration : 2 h 28 min
Bit rate : 33.8 kb/s
Count of elements : 3144
Stream size : 36.0 MiB (0%)
Title : Finnish-PGS
Language : Finnish
Default : No
Forced : No

Text #7
ID : 13
Format : PGS
Muxing mode : zlib
Codec ID : S_HDMV/PGS
Codec ID/Info : Picture based subtitle format used on BDs/HD-DVDs
Duration : 2 h 28 min
Bit rate : 31.6 kb/s
Count of elements : 3136
Stream size : 33.7 MiB (0%)
Title : Norwegian-PGS
Language : Norwegian
Default : No
Forced : No

Text #8
ID : 14
Format : PGS
Muxing mode : zlib
Codec ID : S_HDMV/PGS
Codec ID/Info : Picture based subtitle format used on BDs/HD-DVDs
Duration : 2 h 28 min
Bit rate : 30.0 kb/s
Count of elements : 2422
Stream size : 32.0 MiB (0%)
Title : Swedish-PGS
Language : Swedish
Default : No
Forced : No

Text #9
ID : 15
Format : PGS
Muxing mode : zlib
Codec ID : S_HDMV/PGS
Codec ID/Info : Picture based subtitle format used on BDs/HD-DVDs
Duration : 1 s 126 ms
Bit rate : 121 kb/s
Count of elements : 2
Stream size : 16.7 KiB (0%)
Title : English-FORCED-PGS
Language : English
Default : No
Forced : No

Text #10
ID : 16
Format : PGS
Muxing mode : zlib
Codec ID : S_HDMV/PGS
Codec ID/Info : Picture based subtitle format used on BDs/HD-DVDs
Duration : 2 h 1 min
Bit rate : 115 b/s
Count of elements : 14
Stream size : 103 KiB (0%)
Title : French-FORCED-PGS
Language : French
Default : No
Forced : No

Text #11
ID : 17
Format : PGS
Muxing mode : zlib
Codec ID : S_HDMV/PGS
Codec ID/Info : Picture based subtitle format used on BDs/HD-DVDs
Duration : 1 s 85 ms
Bit rate : 123 kb/s
Count of elements : 2
Stream size : 16.3 KiB (0%)
Title : German-FORCED-PGS
Language : German
Default : No
Forced : No

Menu
00:00:00.000 : en01)00:00:00:000
00:11:28.729 : en02)00:11:28:729
00:18:13.884 : en03)00:18:13:884
00:27:23.808 : en04)00:27:23:808
00:35:48.813 : en05)00:35:48:813
00:42:23.541 : en06)00:42:23:541
00:54:12.874 : en07)00:54:12:874
00:59:36.739 : en08)00:59:36:739
01:05:07.153 : en09)01:05:07:153
01:10:53.666 : en10)01:10:53:666
01:17:06.955 : en11)01:17:06:955
01:24:14.758 : en12)01:24:14:758
01:31:08.004 : en13)01:31:08:004
01:42:00.405 : en14)01:42:00:405
01:45:57.809 : en15)01:45:57:809
01:53:04.068 : en16)01:53:04:068
01:58:52.917 : en17)01:58:52:917
02:03:58.180 : en18)02:03:58:180
02:11:13.282 : en19)02:11:13:282
02:17:31.284 : en20)02:17:31:284
02:29:20.993 : en:(21)02:29:20:993





Avengers.Infinity.War.2018.1080p.3D.BluRay.Half-OU.x264.DTS-HD.MA.7.1-FGT[btbtt..torrent (64.57 KB, 下载次数: 56)
回复

使用道具 举报

小黑屋|百度云资源论坛

本网站所有资源来自网络,如无意中侵犯了您的权益,请发邮件至 804136696@qq.com,立即清除相关链接

GMT+8, 2018-12-14 15:41 , Processed in 0.078502 second(s), 23 queries .

Powered by Discuz! X3.2

© 2001-2013 Comsenz Inc.

快速回复 返回顶部 返回列表