西西论坛

 找回密码
 立即注册
搜索

[BT下载]游侠索罗:星球大战[3D左右]2018.1080p.3D.BluRay.Half-SBS....

[复制链接]
电影首发 发表于 2018-11-9 17:53:59 | 显示全部楼层 |阅读模式



译  名 游侠索罗:星球大战外传/韩索罗:星球大战外传(港)/星球大战外传:游侠索罗/星球大战外传:索罗/星球大战韩·索罗外传/游侠索罗/韩索罗外传/星战外传2
片  名 Solo: A Star Wars Story
年  代 2018
产  地 美国
类  别 动作/科幻/冒险
语  言 英语
西西论坛 http://www.xixi16.com/
片  长 135分钟
导  演 朗·霍华德 Ron Howard
主  演 阿尔登·埃伦瑞奇 Alden Ehrenreich
      艾米莉亚·克拉克 Emilia Clarke
      伍迪·哈里森 Woody Harrelson
      唐纳德·格洛弗 Donald Glover
      保罗·贝坦尼 Paul Bettany
      乔纳斯·索塔莫 Joonas Suotamo
      菲比·沃勒-布里奇 Phoebe Waller-Bridge
      沃维克·戴维斯 Warwick Davis
      坦迪·牛顿 Thandie Newton
      克林特·霍华德 Clint Howard
      伊安·肯尼 Ian Kenny
      理查德·迪克森 Richard Dixon


简  介


  在《游侠索罗》(暂译)中,影迷们将跟随“千年隼号”及银河系中最受爱戴的“恶棍”韩·索罗,迎来全新的银河系探险旅程。经过在黑暗危险的罪犯地下社会中的重重冒险,韩·索罗遇见了他未来强大的副驾驶丘巴卡、以及臭名昭著的赌徒兰多·卡瑞辛,共同展开了一场星战传奇中最不“正统”的英雄历程。


Video
ID : 1
Format : AVC
Format/Info : Advanced Video Codec
Format profile : Hig4.1
Format settings : CABAC / 3 Ref Frames
Format settings, CABAC : Yes
Format settings, ReFrames : 3 frames
Codec ID : V_MPEG4/ISO/AVC
Duration : 2 h 14 min
Bit rate : 15.5 Mb/s
Width : 1 920 pixels
Height : 1 080 pixels
Display aspect ratio : 16:9
Frame rate mode : Constant
Frame rate : 23.976 (24000/1001) FPS
Color space : YUV
Chroma subsampling : 4:2:0
Bit depth : 8 bits
Scan type : Progressive
Bits/(Pixel*Frame) : 0.312
Stream size : 14.5 GiB (64%)
Title : Solo.A.Star.Wars.Story.2018.1080p.3D.BluRay.BluRay.Half-SBS.x264.DTS-HD.MA.7.1-FGT
Writing library : x264 core 148
Encoding settings : cabac=1 / ref=3 / deblock=1:-1:-1 / analyse=0x3:0 / me=hex / subme=5 / psy=1 / psy_rd=1.00:0.00 / mixed_ref=0 / me_range=16 / chroma_me=1 / trellis=1 / 8x8dct=1 / cqm=0 / deadzone=21,11 / fast_pskip=0 / chroma_qp_offset=0 / threads=24 / lookahead_threads=6 / sliced_threads=0 / nr=0 / decimate=1 / interlaced=0 / bluray_compat=0 / constrained_intra=0 / bframes=2 / b_pyramid=0 / b_adapt=1 / b_bias=0 / direct=1 / weightb=0 / open_gop=0 / weightp=0 / keyint=24 / keyint_min=2 / scenecut=40 / intra_refresh=0 / rc=abr / mbtree=0 / bitrate=15500 / ratetol=1.0 / qcomp=0.60 / qpmin=0 / qpmax=69 / qpstep=4 / ip_ratio=1.40 / pb_ratio=1.30 / aq=1:1.00
Default : Yes
Forced : No
Color range : Limited
Color primaries : BT.709
Transfer characteristics : BT.709
Matrix coefficients : BT.709

Audio #1
ID : 2
Format : DTS
Format/Info : Digital Theater Systems
Format profile : MA / Core
Codec ID : A_DTS
Duration : 2 h 14 min
Bit rate mode : Variable / Constant
Bit rate : 5 407 kb/s / 1 509 kb/s
Channel(s) : 8 channels / 6 channels
Channel positions : Front: L C R, Side: L R, Back: L R, LFE / Front: L C R, Side: L R, LFE
Sampling rate : 48.0 kHz
Frame rate : 93.750 FPS (512 SPF)
Bit depth : 24 bits
Compression mode : Lossless / Lossy
Stream size : 5.09 GiB (23%)
Title : Solo.A.Star.Wars.Story.2018.1080p.3D.BluRay.BluRay.Half-SBS.x264.DTS-HD.MA.7.1-FGT
Language : English
Default : Yes
Forced : No

Audio #2
ID : 3
Format : DTS
Format/Info : Digital Theater Systems
Codec ID : A_DTS
Duration : 2 h 14 min
Bit rate mode : Constant
Bit rate : 1 509 kb/s
Channel(s) : 6 channels
Channel positions : Front: L C R, Side: L R, LFE
Sampling rate : 48.0 kHz
Frame rate : 93.750 FPS (512 SPF)
Bit depth : 24 bits
Compression mode : Lossy
Stream size : 1.42 GiB (6%)
Title : Solo.A.Star.Wars.Story.2018.1080p.3D.BluRay.BluRay.Half-SBS.x264.DTS-HD.MA.7.1-FGT
Language : English
Default : No
Forced : No

Audio #3
ID : 4
Format : E-AC-3
Format/Info : Enhanced Audio Coding 3
Codec ID : A_EAC3
Duration : 2 h 14 min
Bit rate mode : Constant
Bit rate : 500 b/s
Channel(s) : 8 channels
Channel(s)_Original : 6 channels
Channel positions : Front: L C R, Side: L R, LFE
Sampling rate : 48.0 kHz
Frame rate : 187.500 FPS (256 SPF)
Compression mode : Lossy
Stream size : 864 MiB (4%)
Title : Solo.A.Star.Wars.Story.2018.1080p.3D.BluRay.BluRay.Half-SBS.x264.DTS-HD.MA.7.1-FGT
Language : German
Service kind : Complete Main
Default : No
Forced : No

Audio #4
ID : 5
Format : AC-3
Format/Info : Audio Coding 3
Codec ID : A_AC3
Duration : 2 h 14 min
Bit rate mode : Constant
Bit rate : 640 kb/s
Channel(s) : 6 channels
Channel positions : Front: L C R, Side: L R, LFE
Sampling rate : 48.0 kHz
Frame rate : 31.250 FPS (1536 SPF)
Bit depth : 16 bits
Compression mode : Lossy
Stream size : 617 MiB (3%)
Title : Solo.A.Star.Wars.Story.2018.1080p.3D.BluRay.BluRay.Half-SBS.x264.DTS-HD.MA.7.1-FGT
Language : Polish
Service kind : Complete Main
Default : No
Forced : No

Text #1
ID : 6
Format : PGS
Muxing mode : zlib
Codec ID : S_HDMV/PGS
Codec ID/Info : Picture based subtitle format used on BDs/HD-DVDs
Duration : 2 h 5 min
Bit rate : 57.0 kb/s
Count of elements : 4496
Stream size : 51.1 MiB (0%)
Title : English-PGS
Language : English
Default : Yes
Forced : No

Text #2
ID : 7
Format : PGS
Muxing mode : zlib
Codec ID : S_HDMV/PGS
Codec ID/Info : Picture based subtitle format used on BDs/HD-DVDs
Duration : 2 h 7 min
Bit rate : 47.0 kb/s
Count of elements : 3482
Stream size : 42.8 MiB (0%)
Title : German-PGS
Language : German
Default : No
Forced : No

Text #3
ID : 8
Format : PGS
Muxing mode : zlib
Codec ID : S_HDMV/PGS
Codec ID/Info : Picture based subtitle format used on BDs/HD-DVDs
Duration : 2 h 7 min
Bit rate : 42.9 kb/s
Count of elements : 3612
Stream size : 39.1 MiB (0%)
Title : Polish-PGS
Language : Polish
Default : No
Forced : No

Text #4
ID : 9
Format : PGS
Muxing mode : zlib
Codec ID : S_HDMV/PGS
Codec ID/Info : Picture based subtitle format used on BDs/HD-DVDs
Duration : 1 h 17 min
Bit rate : 569 b/s
Count of elements : 32
Stream size : 321 KiB (0%)
Title : English-FORCED-PGS
Language : English
Default : No
Forced : No

Text #5
ID : 10
Format : PGS
Muxing mode : zlib
Codec ID : S_HDMV/PGS
Codec ID/Info : Picture based subtitle format used on BDs/HD-DVDs
Duration : 1 h 17 min
Bit rate : 693 b/s
Count of elements : 32
Stream size : 392 KiB (0%)
Title : German-FORCED-PGS
Language : German
Default : No
Forced : No

Text #6
ID : 11
Format : PGS
Muxing mode : zlib
Codec ID : S_HDMV/PGS
Codec ID/Info : Picture based subtitle format used on BDs/HD-DVDs
Duration : 1 h 17 min
Bit rate : 517 b/s
Count of elements : 32
Stream size : 292 KiB (0%)
Title : Polish-FORCED-PGS
Language : Polish
Default : No
Forced : No

Menu
00:00:00.000 : en01)00:00:00:000
00:00:53.845 : en02)00:00:53:845
00:02:10.213 : en03)00:02:10:213
00:03:53.149 : en04)00:03:53:149
00:06:00.485 : en05)00:06:00:485
00:09:27.566 : en06)00:09:27:566
00:13:16.045 : en07)00:13:16:045
00:14:14.019 : en08)00:14:14:019
00:16:12.262 : en09)00:16:12:262
00:19:45.100 : en10)00:19:45:100
00:22:43.820 : en11)00:22:43:820
00:24:37.267 : en12)00:24:37:267
00:27:00.035 : en13)00:27:00:035
00:30:02.926 : en14)00:30:02:926
00:32:54.681 : en15)00:32:54:681
00:39:09.764 : en16)00:39:09:764
00:41:59.225 : en17)00:41:59:225
00:43:20.180 : en18)00:43:20:180
00:44:32.127 : en19)00:44:32:127
00:48:03.755 : en20)00:48:03:755
00:51:58.323 : en:(21)00:51:58:323
00:53:17.527 : en:(22)00:53:17:527
00:57:23.523 : en:(23)00:57:23:523
01:00:16.779 : en:(24)01:00:16:779
01:02:40.882 : en:(25)01:02:40:882
01:04:51.262 : en:(26)01:04:51:262
01:05:29.508 : en:(27)01:05:29:508
01:07:12.027 : en:(28)01:07:12:027
01:08:05.915 : en:(29)01:08:05:915
01:10:00.112 : en:(30)01:10:00:112
01:12:44.193 : en:(31)01:12:44:193
01:14:40.851 : en:(32)01:14:40:851
01:18:30.872 : en:(33)01:18:30:872
01:23:15.740 : en:(34)01:23:15:740
01:26:32.645 : en:(35)01:26:32:645
01:30:33.136 : en:(36)01:30:33:136
01:35:19.672 : en:(37)01:35:19:672
01:37:04.860 : en:(38)01:37:04:860
01:38:52.801 : en:(39)01:38:52:801
01:41:18.530 : en:(40)01:41:18:530
01:43:02.676 : en:(41)01:43:02:676
01:45:27.821 : en:(42)01:45:27:821
01:46:32.177 : en:(43)01:46:32:177
01:49:45.996 : en:(44)01:49:45:996
01:53:33.890 : en:(45)01:53:33:890
01:57:13.901 : en:(46)01:57:13:901
01:58:55.127 : en:(47)01:58:55:127
02:01:34.829 : en:(48)02:01:34:829
02:03:20.893 : en:(49)02:03:20:893
02:06:09.353 : en:(50)02:06:09:353
02:14:46.453 : en:(51)02:14:46:453








Solo.A.Star.Wars.Story.2018.1080p.3D.BluRay.Half-SBS.x264.DTS-HD.MA.7.1-FGT[btbt.torrent (56.91 KB, 下载次数: 213)
回复

使用道具 举报

小黑屋|百度云资源论坛

本网站所有资源来自网络,如无意中侵犯了您的权益,请发邮件至 804136696@qq.com,立即清除相关链接

GMT+8, 2018-12-14 16:10 , Processed in 0.082115 second(s), 23 queries .

Powered by Discuz! X3.2

© 2001-2013 Comsenz Inc.

快速回复 返回顶部 返回列表