百度云资源论坛

 找回密码
 立即注册
搜索

[科幻片] [BT下载]百日孤独 Alien.Invasion.S.U.M.1.2017.720p.BluRay.x264.DTS-CHD 4.5GB ... ...

[复制链接]
电影首发 发表于 2018-1-27 07:39:00 | 显示全部楼层 |阅读模式

译  名 百日孤独
片  名 Sum1
年  代 2017
产  地 德国
类  别 科幻/惊悚/恐怖
语  言 英语
上映日期 2017-03-11(日本)/2017-06-17(上海电影节)/2017-12-07(德国)
IMDb评分  3.8/10 from 487 users
片  长 92分钟
导  演 克里斯蒂安·帕斯奎雷罗 Christian Pasquariello
主  演 伊万·瑞恩 Iwan Rheon
      安德烈·赫尼克 André Hennicke
      雷纳·沃纳 Rainer Werner
      佐伊·格莱斯戴尔 Zoe Grisedale
      尼尔斯-布鲁诺·施密特 Niels-Bruno Schmidt
      蒂姆·威廉姆斯 Tim Williams
      克里斯蒂安·帕斯奎雷罗 Christian Pasquariello


简  介


  外星人侵占了地球,人们被迫逃到地底下的巨型地堡避难。S.U.M.1是一个忠诚的战士,他被送到地面上来拯救幸存者并每天汇报情况。他的任务就是守卫人类的自我防御区不让外星人靠近,然而这每天的例行任务却逐渐成为他的噩梦,令人恐惧的声音在树林里回荡;基地每日都受到频繁的攻击;塔内的电力供应出现故障;修理工却迟迟不出现。他的上司也从未告诉过他有关上一任的事。孤独感与妄想症慢慢侵蚀了他的理智。难道外星人真的埋伏在森林里吗?还是S.U.M.1已经被折磨到精神错乱了?


Video
ID                                       : 1
Format                                   : AVC
Format/Info                              : Advanced Video Codec
Format profile                           : [email protected]
Format settings                          : CABAC / 9 Ref Frames
Format settings, CABAC                   : Yes
Format settings, ReFrames                : 9 frames
Codec ID                                 : V_MPEG4/ISO/AVC
Duration                                 : 1 h 35 min
Bit rate                                 : 5 341 kb/s
Width                                    : 1 280 pixels
Height                                   : 536 pixels
Display aspect ratio                     : 2.40:1
Frame rate mode                          : Constant
Frame rate                               : 23.976 (24000/1001) FPS
Color space                              : YUV
Chroma subsampling                       : 4:2:0
Bit depth                                : 8 bits
Scan type                                : Progressive
Bits/(Pixel*Frame)                       : 0.325
Stream size                              : 3.56 GiB (78%)
Writing library                          : x264 core 149 r2771+45 509cceb 7mod [[email protected] X86_64]
Encoding settings                        : cabac=1 / ref=9 / deblock=1:-3:-3 / analyse=0x3:0x113 / me=umh / subme=10 / psy=1 / fade_compensate=0.00 / psy_rd=0.90:0.10 / mixed_ref=1 / me_range=32 / chroma_me=1 / trellis=2 / 8x8dct=1 / cqm=0 / deadzone=21,11 / fast_pskip=0 / chroma_qp_offset=-2 / threads=12 / lookahead_threads=2 / sliced_threads=0 / nr=0 / decimate=1 / interlaced=0 / bluray_compat=0 / constrained_intra=0 / fgo=0 / bframes=8 / b_pyramid=2 / b_adapt=2 / b_bias=0 / direct=3 / weightb=1 / open_gop=0 / weightp=2 / keyint=250 / keyint_min=23 / scenecut=40 / intra_refresh=0 / rc_lookahead=40 / rc=crf / mbtree=0 / crf=17.0000 / qcomp=0.70 / qpmin=0:0:0 / qpmax=69:69:69 / qpstep=4 / vbv_maxrate=30000 / vbv_bufsize=30000 / crf_max=0.0 / nal_hrd=none / filler=0 / ip_ratio=1.40 / pb_ratio=1.30 / aq=3:1.00 / aq-sensitivity=10.00 / aq-factor=1.00:1.00:1.00 / aq2=0 / aq3=2:[0.50:0.50]:[0.50:0.50]:[0.50:0.50]:[0.50:0.50] / aq3-sensitivity=10.00 / aq3-factor=[1.00:1.00]:[1.00:1.00]:[1.00:1.00] / aq3-boundary=192:64:24
Language                                 : English
Default                                  : Yes
Forced                                   : No
Color range                              : Limited
Matrix coefficients                      : BT.709

Audio
ID                                       : 2
Format                                   : DTS
Format/Info                              : Digital Theater Systems
Codec ID                                 : A_DTS
Duration                                 : 1 h 35 min
Bit rate mode                            : Constant
Bit rate                                 : 1 509 kb/s
Channel(s)                               : 6 channels
Channel positions                        : Front: L C R, Side: L R, LFE
Sampling rate                            : 48.0 kHz
Frame rate                               : 93.750 FPS (512 SPF)
Bit depth                                : 24 bits
Compression mode                         : Lossy
Stream size                              : 1.00 GiB (22%)
Language                                 : English
Default                                  : Yes
Forced                                   : No








Alien.Invasion.S.U.M.1.2017.720p.BluRay.x264.DTS-CHD[bt天堂 www.btbt4.com].torrent (91.75 KB, 下载次数: 0)

回复

使用道具 举报

小黑屋|百度云资源论坛 |网站地图

本网站所有资源来自网络,如无意中侵犯了您的权益,请发邮件至 [email protected],立即清除相关链接

GMT+8, 2020-7-12 05:01 , Processed in 0.108538 second(s), 23 queries .

Powered by Discuz! X3.2

© 2001-2013 Comsenz Inc.

快速回复 返回顶部 返回列表