百度云资源论坛

 找回密码
 立即注册
搜索

[科幻片] [BT下载]星际特工:千星之城 Valerian.2017.720p.BluRay.x264.DD5.1-HDC 5.63GB ... .. ...

[复制链接]
电影首发 发表于 2017-11-10 08:37:00 | 显示全部楼层 |阅读模式

译  名 星际特工:千星之城/瓦莱里安与一千颗行星的城市/星际特工瓦雷诺:千星之城(台)/瓦莱里安与千星之城
片  名 Valérian and the City of a Thousand Planets
年  代 2017
产  地 法国
类  别 动作/科幻/冒险
语  言 英语/法语
上映日期 2017-07-20(德国)/2017-07-26(法国)/2017-08-25(中国大陆)
西西论坛 http://www.xixizhan.com/
片  长 137分钟
导  演 吕克·贝松 Luc Besson
主  演 戴恩·德哈恩 Dane DeHaan
      卡拉·迪瓦伊 Cara Delevingne
      克里夫·欧文 Clive Owen
      蕾哈娜 Rihanna
      伊桑·霍克 Ethan Hawke
      赫比·汉考克 Herbie Hancock
      吴亦凡 Kris Wu
      萨姆·斯普卢尔  Sam Spruell
      阿兰·夏巴 Alain Chabat
      鲁特格尔·哈尔 Rutger Hauer
      泽维尔·吉亚诺利 Xavier Giannoli
      约翰·古德曼 John Goodman
      山姆·道格拉斯 Sam Douglas


简  介


  故事设定在28世纪,人类发现了如何进行时空旅行。Valerian(戴恩·德哈恩 Dane DeHaan 饰)和Laureline(卡拉·迪瓦伊 Cara Delevingne 饰)是“时空服务”的特工,负责保护地球帝国的行星。他们像往常一样执行着星际任务,但在执行一次任务时,他们偶然发现了一个秘密,而他们也被卷入其中,越陷越深……



Video
ID                                       : 1
Format                                   : AVC
Format/Info                              : Advanced Video Codec
Format profile                           : HighL4.1
Format settings                          : CABAC / 12 Ref Frames
Format settings, CABAC                   : Yes
Format settings, ReFrames                : 12 frames
Codec ID                                 : V_MPEG4/ISO/AVC
Duration                                 : 2 h 17 min
Bit rate                                 : 5 122 kb/s
Width                                    : 1 280 pixels
Height                                   : 536 pixels
Display aspect ratio                     : 2.40:1
Frame rate mode                          : Constant
Frame rate                               : 23.976 (24000/1001) FPS
Color space                              : YUV
Chroma subsampling                       : 4:2:0
Bit depth                                : 8 bits
Scan type                                : Progressive
Bits/(Pixel*Frame)                       : 0.311
Stream size                              : 4.90 GiB (87%)
Title                                    : Valerian.and.the.City.of.a.Thousand.Planets.2017.720p.BluRay.x264.DD5.1-HDC
Writing library                          : x264 core 151 r2836+45 cabfa1f 7mod [[email protected] X86_64]
Encoding settings                        : cabac=1 / ref=12 / deblock=1:-3:-3 / analyse=0x3:0x133 / me=umh / subme=9 / psy=1 / fade_compensate=0.00 / psy_rd=1.00:0.00 / mixed_ref=1 / me_range=32 / chroma_me=1 / trellis=2 / 8x8dct=1 / cqm=0 / deadzone=21,11 / fast_pskip=0 / chroma_qp_offset=-2 / threads=16 / lookahead_threads=4 / sliced_threads=0 / nr=0 / decimate=0 / interlaced=0 / bluray_compat=0 / constrained_intra=0 / fgo=0 / bframes=10 / b_pyramid=2 / b_adapt=2 / b_bias=0 / direct=3 / weightb=1 / open_gop=0 / weightp=2 / keyint=240 / keyint_min=24 / scenecut=40 / intra_refresh=0 / rc=crf / mbtree=0 / crf=16.2000 / qcomp=0.60 / qpmin=0:0:0 / qpmax=69:69:69 / qpstep=4 / ip_ratio=1.30 / pb_ratio=1.20 / aq=4:0.90 / aq-sensitivity=10.00 / aq-factor=1.00:1.00:1.00 / aq2=0 / aq3=0
Language                                 : English
Default                                  : Yes
Forced                                   : No
Color range                              : Limited
Color primaries                          : BT.709
Transfer characteristics                 : BT.709
Matrix coefficients                      : BT.709

Audio
ID                                       : 2
Format                                   : AC-3
Format/Info                              : Audio Coding 3
Codec ID                                 : A_AC3
Duration                                 : 2 h 17 min
Bit rate mode                            : Constant
Bit rate                                 : 640 kb/s
Channel(s)                               : 6 channels
Channel positions                        : Front: L C R, Side: L R, LFE
Sampling rate                            : 48.0 kHz
Frame rate                               : 31.250 FPS (1536 SPF)
Bit depth                                : 16 bits
Compression mode                         : Lossy
Stream size                              : 627 MiB (11%)
Title                                    : Valerian.and.the.City.of.a.Thousand.Planets.2017.720p.BluRay.x264.DD5.1-HDC
Language                                 : English
Service kind                             : Complete Main
Default                                  : Yes
Forced                                   : No

Text
ID                                       : 3
Format                                   : UTF-8
Codec ID                                 : S_TEXT/UTF8
Codec ID/Info                            : UTF-8 Plain Text
Language                                 : English
Default                                  : Yes
Forced                                   : No

Menu
00:00:00.000                             : en:Chapter 01
00:12:35.712                             : en:Chapter 02
00:17:29.589                             : en:Chapter 03
00:23:35.788                             : en:Chapter 04
00:32:45.837                             : en:Chapter 05
00:41:19.143                             : en:Chapter 06
00:47:15.666                             : en:Chapter 07
00:56:12.409                             : en:Chapter 08
01:04:25.695                             : en:Chapter 09
01:11:27.908                             : en:Chapter 10
01:20:25.069                             : en:Chapter 11
01:28:13.703                             : en:Chapter 12
01:35:53.913                             : en:Chapter 13
01:41:35.046                             : en:Chapter 14
01:53:37.851                             : en:Chapter 15
02:02:22.585                             : en:Chapter 16
02:17:03.005                             : en:Chapter 17





                                                                                                                                                                                                        


Valerian.and.the.City.of.a.Thousand.Planets.2017.720p.BluRay.x264.DD5.1-HDC[btbt.torrent (56.9 KB, 下载次数: 0)

回复

使用道具 举报

小黑屋|百度云资源论坛 |网站地图

本网站所有资源来自网络,如无意中侵犯了您的权益,请发邮件至 [email protected],立即清除相关链接

GMT+8, 2020-7-15 12:47 , Processed in 0.111805 second(s), 23 queries .

Powered by Discuz! X3.2

© 2001-2013 Comsenz Inc.

快速回复 返回顶部 返回列表