百度云资源论坛

 找回密码
 立即注册
搜索

[剧情片] [BT下载]L-艾露[内封中字]L.2016.1080p.BluRay.x264.DTS-WiKi 9GB

[复制链接]
电影首发 发表于 2017-8-21 08:14:00 | 显示全部楼层 |阅读模式

译  名 L/L-艾露
片  名 L-エル-
年  代 2016
产  地 日本
类  别 剧情/音乐
语  言 日语
上映日期 2016-11-25(日本)
IMDb评分  8.2/10 from 5 users
片  长 107分钟
导  演 下山天 Ten Shimoyama
主  演 广濑爱丽丝 Alice Hirose
      古畑星夏 Seika Furuhata
      古川雄辉 Yûki Furukawa
      平冈佑太 Yûta Hiraoka
      朝美穗香 Mihiro
      成田凌 Ryo Narita
      高桥瞳 Hitomi Takahashi
      高桥玛莉润 Maryjun Takahashi
      田中要次 Yôji Tanaka


简  介


  Acid Black Cherry是视觉系摇滚乐队Janne Da Arc主唱yasu的个人音乐企划,以乐队形式演出,2015年2月发行的概念专辑《L》讲述一个追求爱的女人L孤独而又壮烈的人生,去年八月专辑附赠的小说册子作为小说作品发行,由于受欢迎多次再版,因此推出电影版。
  影片主人公由广濑爱丽丝饰演,从15岁少女时代演到80岁的老年时代,还首次挑战酒吧舞者的角色,她身穿暴露服装大跳激情热舞,广濑丝丝自称这是她最性感的一部戏。


Video
ID                                       : 1
Format                                   : AVC
Format/Info                              : Advanced Video Codec
Format profile                           : HighL4.1
Format settings, CABAC                   : Yes
Format settings, ReFrames                : 5 frames
Codec ID                                 : V_MPEG4/ISO/AVC
Duration                                 : 1 h 45 min
Bit rate                                 : 10.6 Mb/s
Width                                    : 1 920 pixels
Height                                   : 816 pixels
Display aspect ratio                     : 2.35:1
Frame rate mode                          : Constant
Frame rate                               : 23.976 (24000/1001) FPS
Color space                              : YUV
Chroma subsampling                       : 4:2:0
Bit depth                                : 8 bits
Scan type                                : Progressive
Bits/(Pixel*Frame)                       : 0.283
Stream size                              : 7.87 GiB (87%)
Writing library                          : x264 core 129 r2245+704+36 8e61944 tMod+MixAQ [8-bit4:2:0 X86_64]
Encoding settings                        : cabac=1 / ref=5 / deblock=1:-3:-3 / analyse=0x3:0x133 / me=umh / subme=11 / psy=1 / fade_compensate=0.00 / psy_rd=1.05:0.10 / mixed_ref=1 / me_range=64 / chroma_me=1 / trellis=2 / 8x8dct=1 / cqm=0 / deadzone=21,11 / fast_pskip=0 / chroma_qp_offset=-3 / threads=18 / lookahead_threads=3 / sliced_threads=0 / nr=0 / decimate=0 / interlaced=0 / bluray_compat=0 / constrained_intra=0 / fgo=0 / bframes=10 / b_pyramid=2 / b_adapt=2 / b_bias=0 / direct=3 / weightb=1 / open_gop=0 / weightp=2 / keyint=250 / keyint_min=23 / scenecut=40 / intra_refresh=0 / rc=2pass / mbtree=0 / bitrate=10646 / ratetol=1.0 / qcomp=0.70 / qpmin=0 / qpmax=69 / qpstep=4 / cplxblur=20.0 / qblur=0.5 / ip_ratio=1.40 / pb_ratio=1.30 / aq=1 / aq-strength=0.90 / aq-sensitivity=10.00 / aq-ifactor=1.00 / aq-pfactor=1.00 / aq-bfactor=1.00 / aq2=0
Language                                 : Japanese
Default                                  : Yes
Forced                                   : No

Audio
ID                                       : 2
Format                                   : DTS
Format/Info                              : Digital Theater Systems
Mode                                     : 16
Format settings, Endianness              : Big
Codec ID                                 : A_DTS
Duration                                 : 1 h 45 min
Bit rate mode                            : Constant
Bit rate                                 : 1 509 kb/s
Channel(s)                               : 6 channels
Channel positions                        : Front: L C R, Side: L R, LFE
Sampling rate                            : 48.0 kHz
Frame rate                               : 93.750 FPS (512 spf)
Bit depth                                : 24 bits
Compression mode                         : Lossy
Stream size                              : 1.12 GiB (12%)
Language                                 : Japanese
Default                                  : Yes
Forced                                   : No

Text
ID                                       : 3
Format                                   : ASS
Codec ID                                 : S_TEXT/ASS
Codec ID/Info                            : Advanced Sub Station Alpha
Duration                                 : 1 h 41 min
Bit rate                                 : 77 b/s
Count of elements                        : 960
Compression mode                         : Lossless
Stream size                              : 57.5 KiB (0%)
Language                                 : Japanese
Default                                  : Yes
Forced                                   : No

Menu
00:00:00.000                             : en:00:00:00.000
00:02:07.126                             : en:00:02:07.126
00:09:14.762                             : en:00:09:14.762
00:15:07.239                             : en:00:15:07.239
00:22:53.455                             : en:00:22:53.455
00:31:35.602                             : en:00:31:35.602
00:36:57.465                             : en:00:36:57.465
00:47:29.846                             : en:00:47:29.846
01:00:40.637                             : en:01:00:40.637
01:13:11.386                             : en:01:13:11.386
01:21:35.098                             : en:01:21:35.098
01:30:28.714                             : en:01:30:28.714





                                                                                                                                                                                                        

                   L.2016.1080p.BluRay.x264.DTS-WiKi[bt天堂 www.btbt4.com].torrent (90.49 KB, 下载次数: 0)

回复

使用道具 举报

小黑屋|百度云资源论坛 |网站地图

本网站所有资源来自网络,如无意中侵犯了您的权益,请发邮件至 [email protected],立即清除相关链接

GMT+8, 2020-10-30 22:26 , Processed in 0.111367 second(s), 23 queries .

Powered by Discuz! X3.2

© 2001-2013 Comsenz Inc.

快速回复 返回顶部 返回列表