百度云资源论坛

 找回密码
 立即注册
搜索

[剧情片] [BT下载]恋妻家宫本[内封中字]2016.1080p.BluRay.x264-WiKi 9.75GB

[复制链接]
电影首发 发表于 2017-8-21 08:14:00 | 显示全部楼层 |阅读模式
译  名 恋妻家宫本
片  名 恋妻家宮本
年  代 2016
产  地 日本
类  别 剧情/喜剧/家庭
语  言 日语
上映日期 2016-08-25(蒙特利尔电影节)/2017-01-28(日本)
片  长 117分钟
导  演 游川和彦 Kazuhiko Yukawa
主  演 阿部宽 Hiroshi Abe
      天海祐希 Yuki Amami
      菅野美穗 Miho Kanno
      相武纱季 Saki Aibu
      工藤阿须加 Asuka Kudô
      早见明里 Akari Hayami
      奥贯薫 Kaoru Okunuki
      佐藤二朗 Jirô Satô
      富司纯子 Sumiko Fuji
      入江甚仪 Jingi Irie
      佐津川爱美 Aimi Satsukawa
      浦上晟周 Seishuu Uragami
      绀野彩夏 AYAKA KONNO
      丰岛花 Hana Toyoshima
      渡边真起子 Makiko Watanabe
      关户将志 Sekido Masashi
      柳百合菜 Yurina Yanagi


简  介


  本片根据家族小说的拿手作家重松清的作品《家庭餐厅》来做改编,聚焦了一对孩子已经独立生活只剩下两人的50岁中年夫妇,他们该如何适应这样的生活而引发幽默又温情的故事。面临中年离婚危机的中学老师宫本阳平(阿部宽饰)苦恼的同时,通过中学学生和料理教室的伙伴们的关系再度认识家庭,与妻子美代子(天海佑希饰)踏出新的一步。


Video
ID                                       : 1
Format                                   : AVC
Format/Info                              : Advanced Video Codec
Format profile                           : HighL4.1
Format settings, CABAC                   : Yes
Format settings, ReFrames                : 4 frames
Codec ID                                 : V_MPEG4/ISO/AVC
Duration                                 : 1 h 56 min
Bit rate                                 : 11.3 Mb/s
Width                                    : 1 920 pixels
Height                                   : 1 038 pixels
Display aspect ratio                     : 1.85:1
Frame rate mode                          : Constant
Frame rate                               : 23.976 (24000/1001) FPS
Color space                              : YUV
Chroma subsampling                       : 4:2:0
Bit depth                                : 8 bits
Scan type                                : Progressive
Bits/(Pixel*Frame)                       : 0.236
Stream size                              : 9.22 GiB (95%)
Writing library                          : x264 core 129 r2245+704+36 8e61944 tMod+MixAQ [8-bit4:2:0 X86_64]
Encoding settings                        : cabac=1 / ref=4 / deblock=1:-3:-3 / analyse=0x3:0x133 / me=umh / subme=11 / psy=1 / fade_compensate=0.00 / psy_rd=1.05:0.10 / mixed_ref=1 / me_range=64 / chroma_me=1 / trellis=2 / 8x8dct=1 / cqm=0 / deadzone=21,11 / fast_pskip=0 / chroma_qp_offset=-3 / threads=18 / lookahead_threads=3 / sliced_threads=0 / nr=0 / decimate=0 / interlaced=0 / bluray_compat=0 / constrained_intra=0 / fgo=0 / bframes=10 / b_pyramid=2 / b_adapt=2 / b_bias=0 / direct=3 / weightb=1 / open_gop=0 / weightp=2 / keyint=250 / keyint_min=23 / scenecut=40 / intra_refresh=0 / rc=2pass / mbtree=0 / bitrate=11286 / ratetol=1.0 / qcomp=0.70 / qpmin=0 / qpmax=69 / qpstep=4 / cplxblur=20.0 / qblur=0.5 / ip_ratio=1.40 / pb_ratio=1.30 / aq=1 / aq-strength=0.90 / aq-sensitivity=10.00 / aq-ifactor=1.00 / aq-pfactor=1.00 / aq-bfactor=1.00 / aq2=0
Language                                 : Japanese
Default                                  : Yes
Forced                                   : No

Audio
ID                                       : 2
Format                                   : AC-3
Format/Info                              : Audio Coding 3
Format settings, Endianness              : Big
Codec ID                                 : A_AC3
Duration                                 : 1 h 56 min
Bit rate mode                            : Constant
Bit rate                                 : 640 kb/s
Channel(s)                               : 6 channels
Channel positions                        : Front: L C R, Side: L R, LFE
Sampling rate                            : 48.0 kHz
Frame rate                               : 31.250 FPS (1536 spf)
Bit depth                                : 16 bits
Compression mode                         : Lossy
Stream size                              : 535 MiB (5%)
Language                                 : Japanese
Service kind                             : Complete Main
Default                                  : Yes
Forced                                   : No

Text
ID                                       : 3
Format                                   : ASS
Codec ID                                 : S_TEXT/ASS
Codec ID/Info                            : Advanced Sub Station Alpha
Duration                                 : 1 h 56 min
Bit rate                                 : 91 b/s
Count of elements                        : 1587
Compression mode                         : Lossless
Stream size                              : 78.3 KiB (0%)
Language                                 : Japanese
Default                                  : Yes
Forced                                   : No

Menu
00:00:00.000                             : en:00:00:00.000
00:09:29.652                             : en:00:09:29.652
00:19:04.852                             : en:00:19:04.852
00:28:29.207                             : en:00:28:29.207
00:40:06.028                             : en:00:40:06.028
00:54:34.062                             : en:00:54:34.062
01:03:39.607                             : en:01:03:39.607
01:09:08.769                             : en:01:09:08.769
01:20:30.325                             : en:01:20:30.325
01:30:56.742                             : en:01:30:56.742
01:40:35.821                             : en:01:40:35.821
01:48:49.022                             : en:01:48:49.022
01:56:57.009                             : en:01:56:57.009







                                                                                                                                                                                                        

               A.Loving.Husband.2016.1080p.BluRay.x264-WiKi[bt天堂 www.btbt4.com].torrent (98.05 KB, 下载次数: 0)

回复

使用道具 举报

小黑屋|百度云资源论坛 |网站地图

本网站所有资源来自网络,如无意中侵犯了您的权益,请发邮件至 [email protected],立即清除相关链接

GMT+8, 2020-8-13 07:39 , Processed in 0.139034 second(s), 23 queries .

Powered by Discuz! X3.2

© 2001-2013 Comsenz Inc.

快速回复 返回顶部 返回列表