百度云资源论坛

 找回密码
 立即注册
搜索

[剧情片] [BT下载]拆弹专家[国粤中字]Shock.Wave.2017.720p.BluRay.x264-WiKi 5.45GB

[复制链接]
电影首发 发表于 2017-8-18 08:06:00 | 显示全部楼层 |阅读模式

译  名 拆弹·专家
片  名 拆弹专家
年  代 2017
产  地 中国大陆/香港
类  别 动作/犯罪/悬疑
语  言 汉语普通话/粤语
上映日期 2017-04-28(中国大陆)
IMDb评分  6.7/10 from 367 users
片  长 120分钟
导  演 邱礼涛 Herman Yau
主  演 刘德华 Andy Lau
      姜武 Wu Jiang
      宋佳 Jia Song
      吴卓羲 Ron Ng
      姜皓文 Philip Keung Ho-Man
      王紫逸 Zi-yi Wang
      黄日华 Felix Wong
      石修 Sau Sek
      廖启智 Kai Chi Liu
      张竣杰 Chun Kit Chang
      蔡瀚亿 Babyjohn Choi
      张继聪 Louis Cheung
      李国麟 Kwok-Lun Lee
      骆应钧 Ying Kwan Lok
      尹扬明 Yeung Ming Wan
      卢惠光 Ken Lo
      何华超 Tony Ho


简  介


  章在山(刘德华 饰)是香港警队“爆炸品处理科”的一名高级督察。七年前,他潜伏到头号通缉犯火爆(姜武 饰)的犯罪团伙中,在一次打劫金库的行动中,章在山表露了其拆弹组卧底的身份,与警方里应外合,成功阻止炸弹引爆,并将火爆及其弟的犯罪组织一网打尽,可惜在千钧一发之间,火爆逃脱并扬言誓要报仇。复职后的章在山很快被晋升为警队的拆弹专家。七年后,香港接二连三遭遇炸弹恐怖袭击,警方更收到线报大批爆炸品已偷运入港,一切迹象显示香港将有大案发生。就在香港人心惶惶之际,城中最繁忙的红磡海底隧道被悍匪围堵拦截,数百名人质被胁持,终于现身的火爆威胁警方炸毁隧道。章在山唯有将火爆绳之于法,才能拆解这场反恐风暴背后的惊天阴谋。


Video
ID                                       : 1
Format                                   : AVC
Format/Info                              : Advanced Video Codec
Format profile                           : HighL4.1
Format settings, CABAC                   : Yes
Format settings, ReFrames                : 12 frames
Codec ID                                 : V_MPEG4/ISO/AVC
Duration                                 : 1 h 58 min
Bit rate                                 : 5 322 kb/s
Width                                    : 1 280 pixels
Height                                   : 536 pixels
Display aspect ratio                     : 2.40:1
Frame rate mode                          : Constant
Frame rate                               : 24.000 FPS
Color space                              : YUV
Chroma subsampling                       : 4:2:0
Bit depth                                : 8 bits
Scan type                                : Progressive
Bits/(Pixel*Frame)                       : 0.323
Stream size                              : 4.39 GiB (81%)
Writing library                          : x264 core 129 r2245+704+36 8e61944 tMod+MixAQ [8-bit4:2:0 X86_64]
Encoding settings                        : cabac=1 / ref=12 / deblock=1:-3:-3 / analyse=0x3:0x133 / me=umh / subme=11 / psy=1 / fade_compensate=0.00 / psy_rd=1.05:0.10 / mixed_ref=1 / me_range=32 / chroma_me=1 / trellis=2 / 8x8dct=1 / cqm=0 / deadzone=21,11 / fast_pskip=0 / chroma_qp_offset=-3 / threads=18 / lookahead_threads=3 / sliced_threads=0 / nr=0 / decimate=0 / interlaced=0 / bluray_compat=0 / constrained_intra=0 / fgo=0 / bframes=10 / b_pyramid=2 / b_adapt=2 / b_bias=0 / direct=3 / weightb=1 / open_gop=0 / weightp=2 / keyint=250 / keyint_min=24 / scenecut=40 / intra_refresh=0 / rc=2pass / mbtree=0 / bitrate=5322 / ratetol=1.0 / qcomp=0.70 / qpmin=0 / qpmax=69 / qpstep=4 / cplxblur=20.0 / qblur=0.5 / ip_ratio=1.40 / pb_ratio=1.30 / aq=1 / aq-strength=0.90 / aq-sensitivity=10.00 / aq-ifactor=1.00 / aq-pfactor=1.00 / aq-bfactor=1.00 / aq2=0
Language                                 : Chinese
Default                                  : Yes
Forced                                   : No

Audio #1
ID                                       : 2
Format                                   : AC-3
Format/Info                              : Audio Coding 3
Format settings, Endianness              : Big
Codec ID                                 : A_AC3
Duration                                 : 1 h 58 min
Bit rate mode                            : Constant
Bit rate                                 : 640 kb/s
Channel(s)                               : 6 channels
Channel positions                        : Front: L C R, Side: L R, LFE
Sampling rate                            : 48.0 kHz
Frame rate                               : 31.250 FPS (1536 spf)
Bit depth                                : 16 bits
Compression mode                         : Lossy
Stream size                              : 542 MiB (10%)
Title                                    : Cantonese
Language                                 : Chinese
Service kind                             : Complete Main
Default                                  : Yes
Forced                                   : No

Audio #2
ID                                       : 3
Format                                   : AC-3
Format/Info                              : Audio Coding 3
Format settings, Endianness              : Big
Codec ID                                 : A_AC3
Duration                                 : 1 h 58 min
Bit rate mode                            : Constant
Bit rate                                 : 640 kb/s
Channel(s)                               : 6 channels
Channel positions                        : Front: L C R, Side: L R, LFE
Sampling rate                            : 48.0 kHz
Frame rate                               : 31.250 FPS (1536 spf)
Bit depth                                : 16 bits
Compression mode                         : Lossy
Stream size                              : 542 MiB (10%)
Title                                    : Mandarin
Language                                 : Chinese
Service kind                             : Complete Main
Default                                  : No
Forced                                   : No

Text #1
ID                                       : 4
Format                                   : UTF-8
Codec ID                                 : S_TEXT/UTF8
Codec ID/Info                            : UTF-8 Plain Text
Duration                                 : 1 h 51 min
Bit rate                                 : 41 b/s
Count of elements                        : 1689
Stream size                              : 33.5 KiB (0%)
Title                                    : Simplified
Language                                 : Chinese
Default                                  : Yes
Forced                                   : No

Text #2
ID                                       : 5
Format                                   : UTF-8
Codec ID                                 : S_TEXT/UTF8
Codec ID/Info                            : UTF-8 Plain Text
Duration                                 : 1 h 51 min
Bit rate                                 : 41 b/s
Count of elements                        : 1689
Stream size                              : 33.5 KiB (0%)
Title                                    : Traditional
Language                                 : Chinese
Default                                  : No
Forced                                   : No

Menu
00:00:00.000                             : en:00:00:00.000
00:10:03.583                             : en:00:10:03.583
00:20:20.083                             : en:00:20:20.083
00:28:23.875                             : en:00:28:23.875
00:40:06.125                             : en:00:40:06.125
00:50:36.250                             : en:00:50:36.250
00:59:20.583                             : en:00:59:20.583
01:14:05.041                             : en:01:14:05.041
01:22:59.375                             : en:01:22:59.375
01:31:55.500                             : en:01:31:55.500
01:45:20.083                             : en:01:45:20.083
01:53:51.833                             : en:01:53:51.833







                                                                                                                                                                           Shock.Wave.2017.720p.BluRay.x264-WiKi[bt天堂 www.btbt4.com].torrent (55.01 KB, 下载次数: 0)

回复

使用道具 举报

小黑屋|百度云资源论坛 |网站地图

本网站所有资源来自网络,如无意中侵犯了您的权益,请发邮件至 [email protected],立即清除相关链接

GMT+8, 2020-11-27 14:22 , Processed in 0.101157 second(s), 23 queries .

Powered by Discuz! X3.2

© 2001-2013 Comsenz Inc.

快速回复 返回顶部 返回列表