百度云资源论坛

 找回密码
 立即注册
搜索

[剧情片] [BT下载]目击者之追凶[国语中字]Who.Killed.Cock.Robin.2017.720p.BluRay.x264-WiKi 5 ...

[复制链接]
电影首发 发表于 2017-8-13 09:22:00 | 显示全部楼层 |阅读模式



译  名 目击者之追凶
片  名 目擊者
年  代 2017
产  地 台湾
类  别 犯罪/悬疑/惊悚
语  言 汉语普通话/闽南语
上映日期 2017-03-31(台湾)/2017-06-21(上海电影节)
IMDb评分  7.4/10 from 320 users
片  长 117分钟
导  演 程伟豪 Wei-hao Cheng
主  演 庄凯勋 Cash Chuang
      许玮甯 Tiffany Hsu
      柯佳嬿 Alice Ko
      李铭顺 Christopher Lee Ming Shun
      李淳 Mason Lee
      陈彦允 Ian Chen
      郑志伟 Chih-Wei Cheng
      汤志伟 Chih Wei Tang
      卜国耕 Mario Pu


简  介


  冲劲十足、富有野心的社会线记者小齐,在报导一则事故车还魂新闻时,意外发现9年前一宗肇事逃逸命案并不单纯,虽然提案不被长官邱哥重视,但相信直觉的小齐找上菜鸟警员阿纬帮忙,并说服女主管Maggie连手调查当年的真相。当小齐、Maggie 好不容易找到命案中唯一生还的受害者徐爱婷,并取得采访同意后 ,徐爱婷却无故失踪了…到底九年前被隐瞒的真相是什么?


获奖情况


  第20届上海国际电影节  (2017)
  亚洲新人奖 最佳导演(提名) 程伟豪
  亚洲新人奖 最佳摄影(提名)




Video
ID                                       : 1
Format                                   : AVC
Format/Info                              : Advanced Video Codec
Format profile                           : HighL4.1
Format settings, CABAC                   : Yes
Format settings, ReFrames                : 12 frames
Codec ID                                 : V_MPEG4/ISO/AVC
Duration                                 : 1 h 57 min
Bit rate                                 : 6 039 kb/s
Width                                    : 1 280 pixels
Height                                   : 536 pixels
Display aspect ratio                     : 2.40:1
Frame rate mode                          : Constant
Frame rate                               : 24.000 FPS
Color space                              : YUV
Chroma subsampling                       : 4:2:0
Bit depth                                : 8 bits
Scan type                                : Progressive
Bits/(Pixel*Frame)                       : 0.367
Stream size                              : 4.94 GiB (90%)
Writing library                          : x264 core 129 r2245 bc13772
Encoding settings                        : cabac=1 / ref=12 / deblock=1:-3:-3 / analyse=0x3:0x133 / me=umh / subme=11 / psy=1 / psy_rd=1.05:0.10 / mixed_ref=1 / me_range=32 / chroma_me=1 / trellis=2 / 8x8dct=1 / cqm=0 / deadzone=21,11 / fast_pskip=0 / chroma_qp_offset=-3 / threads=12 / lookahead_threads=2 / sliced_threads=0 / nr=0 / decimate=1 / interlaced=0 / bluray_compat=0 / constrained_intra=0 / bframes=8 / b_pyramid=2 / b_adapt=2 / b_bias=0 / direct=3 / weightb=1 / open_gop=0 / weightp=2 / keyint=250 / keyint_min=24 / scenecut=40 / intra_refresh=0 / rc_lookahead=60 / rc=2pass / mbtree=1 / bitrate=6039 / ratetol=1.0 / qcomp=0.60 / qpmin=0 / qpmax=69 / qpstep=4 / cplxblur=20.0 / qblur=0.5 / ip_ratio=1.40 / aq=1:0.80
Language                                 : English
Default                                  : Yes
Forced                                   : No

Audio
ID                                       : 2
Format                                   : AC-3
Format/Info                              : Audio Coding 3
Format settings, Endianness              : Big
Codec ID                                 : A_AC3
Duration                                 : 1 h 57 min
Bit rate mode                            : Constant
Bit rate                                 : 640 kb/s
Channel(s)                               : 6 channels
Channel positions                        : Front: L C R, Side: L R, LFE
Sampling rate                            : 48.0 kHz
Frame rate                               : 31.250 FPS (1536 spf)
Bit depth                                : 16 bits
Compression mode                         : Lossy
Stream size                              : 536 MiB (10%)
Language                                 : Chinese
Service kind                             : Complete Main
Default                                  : Yes
Forced                                   : No

Text #1
ID                                       : 3
Format                                   : UTF-8
Codec ID                                 : S_TEXT/UTF8
Codec ID/Info                            : UTF-8 Plain Text
Duration                                 : 1 h 47 min
Bit rate                                 : 29 b/s
Count of elements                        : 1254
Stream size                              : 23.2 KiB (0%)
Title                                    : 简体
Language                                 : Chinese
Default                                  : Yes
Forced                                   : No

Text #2
ID                                       : 4
Format                                   : UTF-8
Codec ID                                 : S_TEXT/UTF8
Codec ID/Info                            : UTF-8 Plain Text
Duration                                 : 1 h 47 min
Bit rate                                 : 29 b/s
Count of elements                        : 1254
Stream size                              : 23.2 KiB (0%)
Title                                    : 繁体
Language                                 : Chinese
Default                                  : No
Forced                                   : No





                                                                                                                                                                                                        

   Who.Killed.Cock.Robin.2017.720p.BluRay.x264-WiKi[bt天堂 www.btbt4.com].torrent (55.17 KB, 下载次数: 0)

回复

使用道具 举报

小黑屋|百度云资源论坛

本网站所有资源来自网络,如无意中侵犯了您的权益,请发邮件至 [email protected],立即清除相关链接

GMT+8, 2024-5-31 04:01 , Processed in 0.128157 second(s), 26 queries .

Powered by Discuz! X3.2

© 2001-2013 Comsenz Inc.

快速回复 返回顶部 返回列表