百度云资源论坛

 找回密码
 立即注册
搜索

[剧情片] [BT下载]一周的朋友[内封中字]One.Week.Friends.2017.720p.BluRay.x264-WiKi 4.37GB . ...

[复制链接]
电影首发 发表于 2017-8-13 09:22:00 | 显示全部楼层 |阅读模式

译  名 一周的朋友
片  名 一週間フレンズ。
年  代 2017
产  地 日本
类  别 剧情/爱情
语  言 日语
上映日期 2017-02-18(日本)
IMDb评分  8.0/10 from 48 users
片  长 120分钟
导  演 村上正典 Masanori Murakami
主  演 川口春奈 Haruna Kawaguchi
      山崎贤人 Kento Yamazaki
      松尾太阳 Takashi Matsuo
      上杉柊平 Shuhei Uesugi
      高桥春织 Haori Takahashi
      古畑星夏 Seika Furuhata
      伊藤沙莉 Sairi Itô
      甲本雅裕 Masahiro Kômoto
      国生小百合 Sayuri Kokushô
      岩瀬亮 Ryo Iwase
      户次重幸 Shigeyuki Totsugi
      冈田圭右 Keisuke Okada
      山谷祥生 Yamaya Yoshitaka
      雨宫天 Sora Amamiya


简  介


  山崎贤人再演漫改电影,搭档川口春奈。影片改编自人气漫画《一周的朋友》,讲述高二女生藤宫香织与朋友的记忆只能存留一周,因此每到周一就会失去朋友,同级生长谷祐树对她颇有好感,二人之间青涩又焦心的青春物语。影片由《一公升的眼泪》导演村上正典掌镜,明年二月在日本上映。


Video
ID                                       : 1
Format                                   : AVC
Format/Info                              : Advanced Video Codec
Format profile                           : HighL4.1
Format settings, CABAC                   : Yes
Format settings, ReFrames                : 9 frames
Codec ID                                 : V_MPEG4/ISO/AVC
Duration                                 : 2 h 0 min
Bit rate                                 : 4 558 kb/s
Width                                    : 1 280 pixels
Height                                   : 690 pixels
Display aspect ratio                     : 1.85:1
Frame rate mode                          : Constant
Frame rate                               : 23.976 (24000/1001) FPS
Color space                              : YUV
Chroma subsampling                       : 4:2:0
Bit depth                                : 8 bits
Scan type                                : Progressive
Bits/(Pixel*Frame)                       : 0.215
Stream size                              : 3.83 GiB (88%)
Writing library                          : x264 core 129 r2245+704+36 8e61944 tMod+MixAQ [8-bit4:2:0 X86_64]
Encoding settings                        : cabac=1 / ref=9 / deblock=1:-3:-3 / analyse=0x3:0x133 / me=umh / subme=11 / psy=1 / fade_compensate=0.00 / psy_rd=1.05:0.10 / mixed_ref=1 / me_range=32 / chroma_me=1 / trellis=2 / 8x8dct=1 / cqm=0 / deadzone=21,11 / fast_pskip=0 / chroma_qp_offset=-3 / threads=18 / lookahead_threads=3 / sliced_threads=0 / nr=0 / decimate=0 / interlaced=0 / bluray_compat=0 / constrained_intra=0 / fgo=0 / bframes=10 / b_pyramid=2 / b_adapt=2 / b_bias=0 / direct=3 / weightb=1 / open_gop=0 / weightp=2 / keyint=250 / keyint_min=23 / scenecut=40 / intra_refresh=0 / rc=2pass / mbtree=0 / bitrate=4558 / ratetol=1.0 / qcomp=0.70 / qpmin=0 / qpmax=69 / qpstep=4 / cplxblur=20.0 / qblur=0.5 / ip_ratio=1.40 / pb_ratio=1.30 / aq=1 / aq-strength=0.90 / aq-sensitivity=10.00 / aq-ifactor=1.00 / aq-pfactor=1.00 / aq-bfactor=1.00 / aq2=0
Language                                 : Japanese
Default                                  : Yes
Forced                                   : No

Audio
ID                                       : 2
Format                                   : AC-3
Format/Info                              : Audio Coding 3
Format settings, Endianness              : Big
Codec ID                                 : A_AC3
Duration                                 : 2 h 0 min
Bit rate mode                            : Constant
Bit rate                                 : 640 kb/s
Channel(s)                               : 6 channels
Channel positions                        : Front: L C R, Side: L R, LFE
Sampling rate                            : 48.0 kHz
Frame rate                               : 31.250 FPS (1536 spf)
Bit depth                                : 16 bits
Compression mode                         : Lossy
Stream size                              : 551 MiB (12%)
Language                                 : Japanese
Service kind                             : Complete Main
Default                                  : Yes
Forced                                   : No

Text #1
ID                                       : 3
Format                                   : UTF-8
Codec ID                                 : S_TEXT/UTF8
Codec ID/Info                            : UTF-8 Plain Text
Duration                                 : 1 h 54 min
Bit rate                                 : 28 b/s
Count of elements                        : 1075
Stream size                              : 24.3 KiB (0%)
Title                                    : Simplified
Language                                 : Chinese
Default                                  : Yes
Forced                                   : No

Text #2
ID                                       : 4
Format                                   : UTF-8
Codec ID                                 : S_TEXT/UTF8
Codec ID/Info                            : UTF-8 Plain Text
Duration                                 : 1 h 54 min
Bit rate                                 : 28 b/s
Count of elements                        : 1075
Stream size                              : 24.3 KiB (0%)
Title                                    : Traditional
Language                                 : Chinese
Default                                  : No
Forced                                   : No

Menu
00:00:00.000                             : en:00:00:00.000
00:09:38.536                             : en:00:09:38.536
00:22:11.413                             : en:00:22:11.413
00:34:24.937                             : en:00:34:24.937
00:44:40.969                             : en:00:44:40.969
00:53:08.560                             : en:00:53:08.560
01:03:58.668                             : en:01:03:58.668
01:14:30.007                             : en:01:14:30.007
01:27:37.961                             : en:01:27:37.961
01:35:15.418                             : en:01:35:15.418
01:45:50.594                             : en:01:45:50.594
01:54:21.604                             : en:01:54:21.604
02:00:22.215                             : en:02:00:22.215





                                                                                                                                                                                                        

One.Week.Friends.2017.720p.BluRay.x264-WiKi[bt天堂 www.btbt4.com].torrent (87.97 KB, 下载次数: 0)

回复

使用道具 举报

小黑屋|百度云资源论坛

本网站所有资源来自网络,如无意中侵犯了您的权益,请发邮件至 [email protected],立即清除相关链接

GMT+8, 2024-2-29 04:14 , Processed in 0.073571 second(s), 26 queries .

Powered by Discuz! X3.2

© 2001-2013 Comsenz Inc.

快速回复 返回顶部 返回列表