百度云资源论坛

 找回密码
 立即注册
搜索

[喜剧片] [BT下载]玩谢大师/玩谢大作家[粤语中字]Final.Project.2016.720p.BluRay.x264-WiKi 3. ...

[复制链接]
电影首发 发表于 2017-8-13 09:22:00 | 显示全部楼层 |阅读模式

译  名 玩谢大师/玩谢大作家
片  名 玩謝大師
年  代 2015
产  地 香港
类  别 喜剧
语  言 粤语
上映日期 2015-09-10(香港)
片  长 85分钟
导  演 蓝兆基
主  演 陆俊贤
      沈良杰
      李云峰
      张宝瑶
      郑子诚
      刘以达


简  介


  一心誓要超越所有伟大导演的狂人Kane,绞尽脑汁依然徒劳无功,穷途末路欲自杀之际,机缘巧合下得知四名本地最炙手可热的导演将会在他的学校聚首一堂。
  他决定笼络希望成为网路红人的辉仔、有勇无谋的泰拳高手马勇及一名无辜被卷入漩涡的女演员 Queenie,拍摄一场仿如困兽斗,大逃杀式的伪纪录片。
  置身于疑幻似真的亡命境地,他们似乎已无路可退…




Video
ID                                       : 1
Format                                   : AVC
Format/Info                              : Advanced Video Codec
Format profile                           : HighL4.1
Format settings, CABAC                   : Yes
Format settings, ReFrames                : 5 frames
Codec ID                                 : V_MPEG4/ISO/AVC
Duration                                 : 1 h 25 min
Bit rate                                 : 13.2 Mb/s
Width                                    : 1 920 pixels
Height                                   : 810 pixels
Display aspect ratio                     : 2.40:1
Frame rate mode                          : Constant
Frame rate                               : 24.000 FPS
Color space                              : YUV
Chroma subsampling                       : 4:2:0
Bit depth                                : 8 bits
Scan type                                : Progressive
Bits/(Pixel*Frame)                       : 0.353
Stream size                              : 7.82 GiB (95%)
Writing library                          : x264 core 124 r2197+666+28 3970b70 tMod+MixAQ [8-bit4:2:0 X86_64]
Encoding settings                        : cabac=1 / ref=5 / deblock=1:-3:-3 / analyse=0x3:0x133 / me=umh / subme=10 / psy=1 / fade_compensate=0.00 / psy_rd=1.10:0.10 / mixed_ref=1 / me_range=32 / chroma_me=1 / trellis=2 / 8x8dct=1 / cqm=0 / deadzone=21,11 / fast_pskip=1 / chroma_qp_offset=-3 / threads=6 / sliced_threads=0 / nr=0 / decimate=1 / interlaced=0 / bluray_compat=0 / constrained_intra=0 / fgo=0 / bframes=9 / b_pyramid=2 / b_adapt=2 / b_bias=0 / direct=3 / weightb=1 / open_gop=0 / weightp=2 / keyint=250 / keyint_min=24 / scenecut=40 / intra_refresh=0 / rc=crf / mbtree=0 / crf=17.0000 / qcomp=0.75 / qpmin=0 / qpmax=69 / qpstep=4 / ip_ratio=1.40 / pb_ratio=1.30 / aq=1 / aq-strength=0.80 / aq-sensitivity=10.00 / aq-ifactor=1.00 / aq-pfactor=1.00 / aq-bfactor=1.00 / aq2=0
Default                                  : Yes
Forced                                   : No

Audio
ID                                       : 2
Format                                   : AC-3
Format/Info                              : Audio Coding 3
Format settings, Endianness              : Big
Codec ID                                 : A_AC3
Duration                                 : 1 h 25 min
Bit rate mode                            : Constant
Bit rate                                 : 640 kb/s
Channel(s)                               : 6 channels
Channel positions                        : Front: L C R, Side: L R, LFE
Sampling rate                            : 48.0 kHz
Frame rate                               : 31.250 FPS (1536 spf)
Bit depth                                : 16 bits
Compression mode                         : Lossy
Stream size                              : 389 MiB (5%)
Title                                    : Cantonese
Language                                 : Chinese
Service kind                             : Complete Main
Default                                  : Yes
Forced                                   : No

Text #1
ID                                       : 3
Format                                   : UTF-8
Codec ID                                 : S_TEXT/UTF8
Codec ID/Info                            : UTF-8 Plain Text
Duration                                 : 1 h 24 min
Bit rate                                 : 41 b/s
Count of elements                        : 1133
Stream size                              : 25.6 KiB (0%)
Title                                    : cht
Language                                 : Chinese
Default                                  : No
Forced                                   : No

Text #2
ID                                       : 4
Format                                   : UTF-8
Codec ID                                 : S_TEXT/UTF8
Codec ID/Info                            : UTF-8 Plain Text
Duration                                 : 1 h 24 min
Bit rate                                 : 41 b/s
Count of elements                        : 1133
Stream size                              : 25.6 KiB (0%)
Title                                    : chs
Language                                 : Chinese
Default                                  : No
Forced                                   : No

Menu
00:00:00.000                             : en:00:00:00.000
00:05:13.667                             : en:00:05:13.667
00:10:38.417                             : en:00:10:38.417
00:18:20.083                             : en:00:18:20.083
00:30:44.000                             : en:00:30:44.000
00:37:04.958                             : en:00:37:04.958
00:44:26.125                             : en:00:44:26.125
00:51:52.042                             : en:00:51:52.042
01:02:03.542                             : en:01:02:03.542
01:07:53.667                             : en:01:07:53.667
01:12:24.333                             : en:01:12:24.333
01:18:11.125                             : en:01:18:11.125





                                                                                                                                                                                                        

Final.Project.2016.720p.BluRay.x264-WiKi[bt天堂 www.btbt4.com].torrent (66.54 KB, 下载次数: 0)

回复

使用道具 举报

小黑屋|百度云资源论坛

本网站所有资源来自网络,如无意中侵犯了您的权益,请发邮件至 [email protected],立即清除相关链接

GMT+8, 2024-5-20 17:35 , Processed in 0.106541 second(s), 26 queries .

Powered by Discuz! X3.2

© 2001-2013 Comsenz Inc.

快速回复 返回顶部 返回列表