百度云资源论坛

 找回密码
 立即注册
搜索

[科幻片] [BT下载]异星觉醒/外星生命/异星智慧 Life.2017.720p.BluRay.x264.DTS-HDC 4.78GB ... ...

[复制链接]
电影首发 发表于 2017-6-9 07:31:00 | 显示全部楼层 |阅读模式

译  名 异星觉醒/外星生命(港)/异星智慧(台)/生命
片  名 Life
年  代 2017
产  地 美国
类  别 科幻/惊悚/恐怖
语  言 英语/日语
上映日期 2017-03-18(西南偏南电影节)/2017-03-24(美国)/2017-05-19(中国大陆)
IMDb评分  6.8/10 from 54,489 users
  
豆瓣评分 6.6/10 from 52,581 users
 
西西电影网 http://www.xixi16.com
片  长 104分钟
导  演 丹尼尔·伊斯皮诺萨 Daniel Espinosa
主  演 杰克·吉伦哈尔 Jake Gyllenhaal
      丽贝卡·弗格森 Rebecca Ferguson
      瑞恩·雷诺兹 Ryan Reynolds
      真田广之 Hiroyuki Sanada
      阿利安·巴克瑞 Ariyon Bakare
      奥尔加·戴维克娜雅 Olga Dihovichnaya
      大卫·梅尔 David Muir
      伊莉莎白·巴尔加斯 Elizabeth Vargas
      卡米尔·沃伦-泰勒 Camiel Warren-Taylor
      森尚子 Naoko Mori
      亚历山大·阮 Alexandre Nguyen
      希·伍辛 Hiu Woong-Sin


简  介


  几位漂浮在空间站的宇航员们发现了一个来自火星的“神秘样本”,这个样本其实就是他们一直在找寻的高智能“智慧生命体”。它不仅集肌细胞、神经细胞于一体,更拥有超强大脑,能够进行超能进化。但却不知其体内竟然暗藏巨大的杀机,导致整个空间站都弥漫着死亡的气息,人类的命运也危在旦夕。


Video
ID                                       : 1
Format                                   : AVC
Format/Info                              : Advanced Video Codec
Format profile                           :
Format settings, CABAC                   : Yes
Format settings, ReFrames                : 12 frames
Codec ID                                 : V_MPEG4/ISO/AVC
Duration                                 : 1h 43mn
Bit rate                                 : 5 000 Kbps
Width                                    : 1 280 pixels
Height                                   : 536 pixels
Display aspect ratio                     : 2.40:1
Frame rate mode                          : Constant
Frame rate                               : 23.976 (24000/1001) fps
Color space                              : YUV
Chroma subsampling                       : 4:2:0
Bit depth                                : 8 bits
Scan type                                : Progressive
Bits/(Pixel*Frame)                       : 0.304
Stream size                              : 3.59 GiB (75%)
Title                                    : Life.2017.720p.BluRay.x264.DTS-HDC
Writing library                          : x264 core 148 r2665kMod a01e339
Encoding settings                        : cabac=1 / ref=12 / deblock=1:-3:-3 / analyse=0x3:0x133 / me=umh / subme=11 / psy=1 / fade_compensate=0.00 / psy_rd=1.05:0.00 / mixed_ref=1 / me_range=32 / chroma_me=1 / trellis=2 / 8x8dct=1 / cqm=0 / deadzone=21,11 / fast_pskip=0 / chroma_qp_offset=-2 / threads=17 / lookahead_threads=2 / sliced_threads=0 / nr=0 / decimate=0 / interlaced=0 / bluray_compat=0 / constrained_intra=0 / fgo=0 / bframes=8 / b_pyramid=2 / b_adapt=2 / b_bias=0 / direct=3 / weightb=1 / open_gop=0 / weightp=2 / keyint=240 / keyint_min=24 / scenecut=40 / intra_refresh=0 / rc=2pass / mbtree=0 / bitrate=5000 / ratetol=1.0 / qcomp=0.70 / qpmin=0 / qpmax=69 / qpstep=4 / cplxblur=20.0 / qblur=0.5 / ip_ratio=1.20 / pb_ratio=1.20 / aq=3:0.85
Language                                 : English
Default                                  : Yes
Forced                                   : No

Audio
ID                                       : 2
Format                                   : DTS
Format/Info                              : Digital Theater Systems
Mode                                     : 16
Format settings, Endianness              : Big
Codec ID                                 : A_DTS
Duration                                 : 1h 43mn
Bit rate mode                            : Constant
Bit rate                                 : 1 509 Kbps
Channel(s)                               : 6 channels
Channel positions                        : Front: L C R, Side: L R, LFE
Sampling rate                            : 48.0 KHz
Frame rate                               : 93.750 fps (512 spf)
Bit depth                                : 16 bits
Compression mode                         : Lossy
Stream size                              : 1.10 GiB (23%)
Title                                    : Life.2017.720p.BluRay.x264.DTS-HDC
Language                                 : English
Default                                  : Yes
Forced                                   : No

Text
ID                                       : 3
Format                                   : UTF-8
Codec ID                                 : S_TEXT/UTF8
Codec ID/Info                            : UTF-8 Plain Text
Language                                 : English
Default                                  : Yes
Forced                                   : No

Menu
00:00:00.000                             : en:00:00:00.000
00:09:32.864                             : en:00:09:32.864
00:13:13.084                             : en:00:13:13.084
00:15:36.894                             : en:00:15:36.894
00:19:35.341                             : en:00:19:35.341
00:24:57.454                             : en:00:24:57.454
00:34:36.992                             : en:00:34:36.992
00:40:45.109                             : en:00:40:45.109
00:43:59.303                             : en:00:43:59.303
00:52:21.805                             : en:00:52:21.805
00:58:33.927                             : en:00:58:33.927
01:06:37.785                             : en:01:06:37.785
01:11:43.257                             : en:01:11:43.257
01:17:50.875                             : en:01:17:50.875
01:22:39.621                             : en:01:22:39.621
01:28:34.309                             : en:01:28:34.309







Life.2017.720p.BluRay.x264.DTS-HDC[bt天堂 www.btbt4.com].torrent (96.14 KB, 下载次数: 0)

回复

使用道具 举报

小黑屋|百度云资源论坛 |网站地图

本网站所有资源来自网络,如无意中侵犯了您的权益,请发邮件至 [email protected],立即清除相关链接

GMT+8, 2020-7-7 16:36 , Processed in 0.109344 second(s), 23 queries .

Powered by Discuz! X3.2

© 2001-2013 Comsenz Inc.

快速回复 返回顶部 返回列表