百度云资源论坛

 找回密码
 立即注册
搜索

[科幻片] [BT下载]虚空异界/虚空 The.Void.2016.720p.BluRay.DD5.1.x264-SpaceHD 3.95GB ... .. ...

[复制链接]
电影首发 发表于 2017-5-17 20:22:00 | 显示全部楼层 |阅读模式

译  名 虚空异界/虚空
片  名 The Void
年  代 2016
产  地 加拿大
类  别 科幻/悬疑/恐怖
语  言 英语
上映日期 2016-09-22(奇幻电影节)
IMDb评分  5.8/10 from 8,590 users
  
豆瓣评分 5.7/10 from 1,083 users
 
西西电影网 http://www.xixi16.com
片  长 90分钟
导  演 杰里米·格里斯佩 Jeremy Gillespie / 史蒂文·科斯坦斯基 Steven Kostanski
主  演 亚伦·普尔 Aaron Poole
      肯尼斯·威尔什 Kenneth Welsh
      丹尼尔·法瑟斯 Daniel Fathers
      凯丝琳·蒙露 Kathleen Munroe
      艾伦·王 Ellen Wong
      米克·比斯科夫 Mik Byskov
      阿特·欣德尔 Art Hindle
      斯蒂芬妮·贝尔丁 Stephanie Belding
      詹姆斯·米林顿 James Millington
      埃文·斯特恩 Evan Stern
      格雷丝·蒙罗 Grace Munro
      马修·肯尼迪 Matthew Kennedy
      特里什·雷诺娜 Trish Rainone
      大卫·斯科特 David Scott
      麦肯齐·索耶 Mackenzie Sawyer


简  介


  故事发生在一座小镇的医院内。一名警官将一位伤员送进医院后,一曲身份不明的神秘人包围了医院。宗教?黑帮?恐怖组织?在知晓这群人的身份之前,一场大屠杀已经展开。




Complete name : The.Void.2016.720p.BluRay.DD5.1.x264-SpaceHD.mkv
Format : Matroska
Format version : Version 4 / Version 2
File size : 3.95 GiB
Duration : 1 h 30 min
Overall bit rate : 6 236 kb/s
Movie name : The.Void.2016.720p.BluRay.DD5.1.x264-SpaceHD
Encoded date : UTC 2017-04-30 20:53:34
Writing application : mkvmerge v10.0.0 (\'To Drown In You\') 64bit
Writing library : libebml v1.3.4 + libmatroska v1.4.5

Video
ID : 1
Format : AVC
Format/Info : Advanced Video Codec
Format profile :
Format settings, CABAC : Yes
Format settings, ReFrames : 12 frames
Codec ID : V_MPEG4/ISO/AVC
Duration : 1 h 30 min
Bit rate : 5 525 kb/s
Width : 1 280 pixels
Height : 538 pixels
Display aspect ratio : 2.40:1
Frame rate mode : Constant
Frame rate : 23.976 (24000/1001) FPS
Color space : YUV
Chroma subsampling : 4:2:0
Bit depth : 8 bits
Scan type : Progressive
Bits/(Pixel*Frame) : 0.335
Stream size : 3.50 GiB (89%)
Writing library : x264 core 148 r2744 b97ae06
Encoding settings : cabac=1 / ref=12 / deblock=1:-3:-3 / analyse=0x3:0x113 / me=umh / subme=10 / psy=1 / psy_rd=1.03:0.00 / mixed_ref=1 / me_range=32 / chroma_me=1 / trellis=2 / 8x8dct=1 / cqm=1 / deadzone=21,11 / fast_pskip=0 / chroma_qp_offset=-1 / threads=12 / lookahead_threads=2 / sliced_threads=0 / nr=0 / decimate=1 / interlaced=0 / bluray_compat=0 / constrained_intra=0 / bframes=8 / b_pyramid=2 / b_adapt=2 / b_bias=0 / direct=3 / weightb=1 / open_gop=0 / weightp=2 / keyint=230 / keyint_min=23 / scenecut=40 / intra_refresh=0 / rc_lookahead=40 / rc=crf / mbtree=0 / crf=15.2 / qcomp=0.65 / qpmin=10 / qpmax=69 / qpstep=4 / vbv_maxrate=62500 / vbv_bufsize=78125 / crf_max=0.0 / nal_hrd=none / filler=0 / ip_ratio=1.30 / pb_ratio=1.20 / aq=1:0.75
Language : English
Default : Yes
Forced : No

Audio #1
ID : 2
Format : AC-3
Format/Info : Audio Coding 3
Mode extension : CM (complete main)
Format settings, Endianness : Big
Codec ID : A_AC3
Duration : 1 h 30 min
Bit rate mode : Constant
Bit rate : 640 kb/s
Channel(s) : 6 channels
Channel positions : Front: L C R, Side: L R, LFE
Sampling rate : 48.0 kHz
Frame rate : 31.250 FPS (1536 spf)
Compression mode : Lossy
Stream size : 415 MiB (10%)
Language : English
Default : Yes
Forced : No

Audio #2
ID : 3
Format : AAC
Format/Info : Advanced Audio Codec
Format profile : HE-AAC / LC
Codec ID : A_AAC
Duration : 1 h 30 min
Bit rate : 68.2 kb/s
Channel(s) : 2 channels
Channel positions : Front: L R
Sampling rate : 48.0 kHz / 24.0 kHz
Frame rate : 23.438 FPS (1024 spf)
Compression mode : Lossy
Delay relative to video : 31 ms
Stream size : 44.2 MiB (1%)
Title : Commentary, AAC 2.0
Language : English
Default : No
Forced : No

Text #1
ID : 4
Format : UTF-8
Codec ID : S_TEXT/UTF8
Codec ID/Info : UTF-8 Plain Text
Duration : 1 h 20 min
Bit rate : 45 b/s
Count of elements : 781
Stream size : 27.2 KiB (0%)
Language : English
Default : Yes
Forced : No

Text #2
ID : 5
Format : UTF-8
Codec ID : S_TEXT/UTF8
Codec ID/Info : UTF-8 Plain Text
Duration : 1 h 24 min
Bit rate : 49 b/s
Count of elements : 968
Stream size : 30.5 KiB (0%)
Title : SDH
Language : English
Default : No
Forced : No

Text #3
ID : 6
Format : UTF-8
Codec ID : S_TEXT/UTF8
Codec ID/Info : UTF-8 Plain Text
Duration : 1 h 28 min
Bit rate : 54 b/s
Count of elements : 958
Stream size : 35.4 KiB (0%)
Language : Arabic
Default : No
Forced : No

Text #4
ID : 7
Format : UTF-8
Codec ID : S_TEXT/UTF8
Codec ID/Info : UTF-8 Plain Text
Duration : 1 h 22 min
Bit rate : 36 b/s
Count of elements : 572
Stream size : 22.1 KiB (0%)
Language : Danish
Default : No
Forced : No

Text #5
ID : 8
Format : UTF-8
Codec ID : S_TEXT/UTF8
Codec ID/Info : UTF-8 Plain Text
Duration : 1 h 22 min
Bit rate : 34 b/s
Count of elements : 566
Stream size : 20.9 KiB (0%)
Language : Finnish
Default : No
Forced : No

Text #6
ID : 9
Format : UTF-8
Codec ID : S_TEXT/UTF8
Codec ID/Info : UTF-8 Plain Text
Duration : 1 h 21 min
Bit rate : 45 b/s
Count of elements : 1057
Stream size : 27.2 KiB (0%)
Language : Italian
Default : No
Forced : No

Text #7
ID : 10
Format : UTF-8
Codec ID : S_TEXT/UTF8
Codec ID/Info : UTF-8 Plain Text
Duration : 1 h 20 min
Bit rate : 35 b/s
Count of elements : 572
Stream size : 21.2 KiB (0%)
Language : Norwegian
Default : No
Forced : No

Text #8
ID : 11
Format : UTF-8
Codec ID : S_TEXT/UTF8
Codec ID/Info : UTF-8 Plain Text
Duration : 1 h 20 min
Bit rate : 38 b/s
Count of elements : 572
Stream size : 22.6 KiB (0%)
Language : Swedish
Default : No
Forced : No

Menu
00:00:00.000 : en:Chapter 1
00:15:11.536 : en:Chapter 2
00:34:54.884 : en:Chapter 3
00:51:30.546 : en:Chapter 4
01:05:36.933 : en:Chapter 5
01:18:24.366 : en:Chapter 6



The.Void.2016.720p.BluRay.DD5.1.x264-SpaceHD[btbtt.co].torrent (159 KB, 下载次数: 0)

回复

使用道具 举报

小黑屋|百度云资源论坛 |网站地图

本网站所有资源来自网络,如无意中侵犯了您的权益,请发邮件至 [email protected],立即清除相关链接

GMT+8, 2020-7-7 18:17 , Processed in 0.106145 second(s), 23 queries .

Powered by Discuz! X3.2

© 2001-2013 Comsenz Inc.

快速回复 返回顶部 返回列表