百度云资源论坛

 找回密码
 立即注册
搜索

[科幻片] [BT下载]奇异博士 Doctor.Strange.2016.720p.BluRay.DD5.1.x264-SpaceHD 5.89GB

[复制链接]
电影首发 发表于 2017-3-16 20:39:00 | 显示全部楼层 |阅读模式

译  名 奇异博士/斯特兰奇博士/史特兰奇博士/奇怪博士/怪奇医生/奇异医生/史奇医生
片  名 Doctor Strange
年  代 2016
国  家 美国
类  别 动作/科幻/奇幻/冒险
语  言 英语
上映日期 2016-10-25(英国)/2016-11-04(中国大陆/美国)
片  长 115分钟
导  演 斯科特·德瑞克森 Scott Derrickson
主  演 本尼迪克特·康伯巴奇 Benedict Cumberbatch
      蒂尔达·斯文顿 Tilda Swinton
      麦斯·米科尔森 Mads Mikkelsen
      切瓦特·埃加福特 Chiwetel Ejiofor
      瑞秋·麦克亚当斯 Rachel McAdams
      迈克尔·斯图巴 Michael Stuhlbarg
      本尼迪克特·王 Benedict Wong
      本杰明·布拉特 Benjamin Bratt
      斯科特·阿金斯 Scott Adkins
      莎拉·费希恩 Zara Phythian
      阿拉·萨菲 Alaa Safi


简  介


  斯特兰奇博士(本尼迪克特·康伯巴奇 Benedict Cumberbatch 饰)是一名外科手术医生,他拥有着高超的智商和精湛的技艺,是医院乃至整个医学界的传奇人物。某一日,斯特兰奇博士遭遇了一场可怕的车祸,尽管保住了双手,但这双手伤痕累累不住颤抖,这也就意味着,他再也不能拿起手术刀,站在无影灯下了。
  斯特兰奇博士的生活就此失去了意义陷入了绝望之中,他决定远赴尼泊尔,寻找传说中能够治愈他双手的神秘力量。在尼泊尔,风尘仆仆的斯特兰奇博士拜入了神秘的古一法师(蒂尔达·斯文顿 Tilda Swinton 饰)门下,成为了其弟子,与此同时,古一法师曾经的弟子卡西利亚斯(麦斯·米科尔森 饰)亦在虎视眈眈,企图完成他获得永生的大业。


获奖情况


  第89届奥斯卡金像奖  (2017)
  最佳视觉效果(提名) Stephane Ceretti / 文森特·西雷利 / Richard Bluff / Paul Corbould


  第70届英国电影学院奖  (2017)
  电影奖 最佳化妆/发型(提名)
  电影奖 最佳艺术指导(提名)
  电影奖 最佳特殊视觉效果(提名)


  第44届动画安妮奖  (2017)
  最佳真人电影动画效果


  第23届美国演员工会奖  (2017)
  电影最佳特技群像(提名)


  第21届美国艺术指导工会奖  (2017)
  电影奖 最佳幻想电影艺术指导(提名)


  第19届美国服装设计工会奖  (2017)
  奇幻题材电影最佳服装设计


  第15届美国视觉效果协会奖  (2017)
  最佳特效电影视觉效果(提名)
  最佳真人电影CG背景
  最佳电影虚拟摄影(提名)
  最佳真人电影模拟动画效果(提名)
  最佳电影视觉效果合成(提名)


  第53届美国声音效果协会奖  (2017)
  真人电影最佳音效(提名)


  第22届美国评论家选择电影奖  (2016)
  最佳化妆(提名)
  最佳视觉效果(提名)
  最佳动作片(提名)
  动作片最佳男主角(提名) 本尼迪克特·康伯巴奇
  动作片最佳女主角(提名) 蒂尔达·斯文顿
  最佳科幻/恐怖片(提名)


  第20届好莱坞电影奖  (2016)
  年度视觉效果


Complete name : Doctor.Strange.2016.720p.BluRay.DD5.1.x264-SpaceHD.mkv
Format : Matroska
Format version : Version 4 / Version 2
File size : 5.89 GiB
Duration : 1 h 54 min
Overall bit rate : 7 334 kb/s
Movie name : Doctor.Strange.2016.720p.BluRay.DD5.1.x264-SpaceHD
Encoded date : UTC 2017-02-20 17:34:07
Writing application : mkvmerge v9.8.0 (\'Kuglblids\') 64bit
Writing library : libebml v1.3.4 + libmatroska v1.4.5

Video
ID : 1
Format : AVC
Format/Info : Advanced Video Codec
Format profile : [email protected]
Format settings, CABAC : Yes
Format settings, ReFrames : 12 frames
Codec ID : V_MPEG4/ISO/AVC
Duration : 1 h 54 min
Bit rate : 6 618 kb/s
Width : 1 280 pixels
Height : 536 pixels
Display aspect ratio : 2.40:1
Frame rate mode : Constant
Frame rate : 23.976 (24000/1001) FPS
Color space : YUV
Chroma subsampling : 4:2:0
Bit depth : 8 bits
Scan type : Progressive
Bits/(Pixel*Frame) : 0.402
Stream size : 5.31 GiB (90%)
Writing library : x264 core 148 r2744 b97ae06
Encoding settings : cabac=1 / ref=12 / deblock=1:-3:-3 / analyse=0x3:0x113 / me=umh / subme=10 / psy=1 / psy_rd=1.03:0.00 / mixed_ref=1 / me_range=32 / chroma_me=1 / trellis=2 / 8x8dct=1 / cqm=1 / deadzone=21,11 / fast_pskip=0 / chroma_qp_offset=-1 / threads=12 / lookahead_threads=2 / sliced_threads=0 / nr=0 / decimate=1 / interlaced=0 / bluray_compat=0 / constrained_intra=0 / bframes=8 / b_pyramid=2 / b_adapt=2 / b_bias=0 / direct=3 / weightb=1 / open_gop=0 / weightp=2 / keyint=230 / keyint_min=23 / scenecut=40 / intra_refresh=0 / rc_lookahead=40 / rc=crf / mbtree=0 / crf=13.0 / qcomp=0.65 / qpmin=10 / qpmax=69 / qpstep=4 / vbv_maxrate=62500 / vbv_bufsize=78125 / crf_max=0.0 / nal_hrd=none / filler=0 / ip_ratio=1.30 / pb_ratio=1.20 / aq=1:0.75
Language : English
Default : Yes
Forced : No

Audio #1
ID : 2
Format : AC-3
Format/Info : Audio Coding 3
Mode extension : CM (complete main)
Format settings, Endianness : Big
Codec ID : A_AC3
Duration : 1 h 54 min
Bit rate mode : Constant
Bit rate : 640 kb/s
Channel(s) : 6 channels
Channel positions : Front: L C R, Side: L R, LFE
Sampling rate : 48.0 kHz
Frame rate : 31.250 FPS (1536 spf)
Compression mode : Lossy
Stream size : 526 MiB (9%)
Language : English
Default : Yes
Forced : No

Audio #2
ID : 3
Format : AAC
Format/Info : Advanced Audio Codec
Format profile : HE-AAC / LC
Codec ID : A_AAC
Duration : 1 h 54 min
Bit rate : 72.0 kb/s
Channel(s) : 2 channels
Channel positions : Front: L R
Sampling rate : 48.0 kHz / 24.0 kHz
Frame rate : 23.438 FPS (1024 spf)
Compression mode : Lossy
Delay relative to video : 31 ms
Stream size : 59.7 MiB (1%)
Title : Commentary, AAC 2.0
Language : English
Default : No
Forced : No

Text #1
ID : 4
Format : UTF-8
Codec ID : S_TEXT/UTF8
Codec ID/Info : UTF-8 Plain Text
Duration : 1 h 52 min
Bit rate : 43 b/s
Count of elements : 1304
Stream size : 35.7 KiB (0%)
Language : English
Default : Yes
Forced : No

Text #2
ID : 5
Format : UTF-8
Codec ID : S_TEXT/UTF8
Codec ID/Info : UTF-8 Plain Text
Duration : 1 h 54 min
Bit rate : 48 b/s
Count of elements : 1568
Stream size : 40.8 KiB (0%)
Title : SDH
Language : English
Default : No
Forced : No

Text #3
ID : 6
Format : UTF-8
Codec ID : S_TEXT/UTF8
Codec ID/Info : UTF-8 Plain Text
Duration : 1 h 54 min
Bit rate : 65 b/s
Count of elements : 1008
Stream size : 54.5 KiB (0%)
Language : Arabic
Default : No
Forced : No

Text #4
ID : 7
Format : UTF-8
Codec ID : S_TEXT/UTF8
Codec ID/Info : UTF-8 Plain Text
Duration : 1 h 52 min
Bit rate : 69 b/s
Count of elements : 902
Stream size : 57.3 KiB (0%)
Language : Bulgarian
Default : No
Forced : No

Text #5
ID : 8
Format : UTF-8
Codec ID : S_TEXT/UTF8
Codec ID/Info : UTF-8 Plain Text
Duration : 1 h 52 min
Bit rate : 40 b/s
Count of elements : 977
Stream size : 33.4 KiB (0%)
Language : Danish
Default : No
Forced : No

Text #6
ID : 9
Format : UTF-8
Codec ID : S_TEXT/UTF8
Codec ID/Info : UTF-8 Plain Text
Duration : 1 h 54 min
Bit rate : 41 b/s
Count of elements : 899
Stream size : 34.8 KiB (0%)
Language : Dutch
Default : No
Forced : No

Text #7
ID : 10
Format : UTF-8
Codec ID : S_TEXT/UTF8
Codec ID/Info : UTF-8 Plain Text
Duration : 1 h 52 min
Bit rate : 48 b/s
Count of elements : 1304
Stream size : 39.5 KiB (0%)
Language : French
Default : No
Forced : No

Text #8
ID : 11
Format : UTF-8
Codec ID : S_TEXT/UTF8
Codec ID/Info : UTF-8 Plain Text
Duration : 1 h 54 min
Bit rate : 46 b/s
Count of elements : 1353
Stream size : 39.5 KiB (0%)
Language : Malay
Default : No
Forced : No

Text #9
ID : 12
Format : UTF-8
Codec ID : S_TEXT/UTF8
Codec ID/Info : UTF-8 Plain Text
Duration : 1 h 52 min
Bit rate : 42 b/s
Count of elements : 1281
Stream size : 35.2 KiB (0%)
Language : Norwegian
Default : No
Forced : No

Text #10
ID : 13
Format : UTF-8
Codec ID : S_TEXT/UTF8
Codec ID/Info : UTF-8 Plain Text
Duration : 1 h 52 min
Bit rate : 44 b/s
Count of elements : 1279
Stream size : 36.9 KiB (0%)
Language : Spanish
Default : No
Forced : No

Text #11
ID : 14
Format : UTF-8
Codec ID : S_TEXT/UTF8
Codec ID/Info : UTF-8 Plain Text
Duration : 1 h 52 min
Bit rate : 41 b/s
Count of elements : 884
Stream size : 34.2 KiB (0%)
Language : Swedish
Default : No
Forced : No

Text #12
ID : 15
Format : UTF-8
Codec ID : S_TEXT/UTF8
Codec ID/Info : UTF-8 Plain Text
Duration : 1 h 52 min
Bit rate : 89 b/s
Count of elements : 1308
Stream size : 73.3 KiB (0%)
Language : Thai
Default : No
Forced : No

Text #13
ID : 16
Format : UTF-8
Codec ID : S_TEXT/UTF8
Codec ID/Info : UTF-8 Plain Text
Duration : 1 h 54 min
Bit rate : 48 b/s
Count of elements : 1000
Stream size : 41.1 KiB (0%)
Language : Turkish
Default : No
Forced : No

Text #14
ID : 17
Format : UTF-8
Codec ID : S_TEXT/UTF8
Codec ID/Info : UTF-8 Plain Text
Duration : 1 h 52 min
Bit rate : 68 b/s
Count of elements : 1302
Stream size : 56.4 KiB (0%)
Language : Vietnamese
Default : No
Forced : No

Menu
00:00:00.000 : en:Chapter 1
00:04:34.566 : en:Chapter 2
00:10:16.825 : en:Chapter 3
00:18:32.153 : en:Chapter 4
00:24:37.017 : en:Chapter 5
00:31:40.482 : en:Chapter 6
00:38:33.811 : en:Chapter 7
00:43:16.135 : en:Chapter 8
00:48:24.527 : en:Chapter 9
00:55:34.498 : en:Chapter 10
01:05:04.359 : en:Chapter 11
01:12:38.437 : en:Chapter 12
01:22:14.346 : en:Chapter 13
01:28:28.637 : en:Chapter 14
01:35:00.904 : en:Chapter 15
01:45:06.509 : en:Chapter 16

Doctor.Strange.2016.720p.BluRay.DD5.1.x264-SpaceHD[bt天堂 www.btbt4.com].torrent (7.78 KB, 下载次数: 0)

回复

使用道具 举报

小黑屋|百度云资源论坛 |网站地图

本网站所有资源来自网络,如无意中侵犯了您的权益,请发邮件至 [email protected],立即清除相关链接

GMT+8, 2020-7-7 16:26 , Processed in 0.099714 second(s), 23 queries .

Powered by Discuz! X3.2

© 2001-2013 Comsenz Inc.

快速回复 返回顶部 返回列表