百度云资源论坛

 找回密码
 立即注册
搜索

[科幻片] [BT下载]破裂 Rupture.2016.BluRay.720p.DTS.5.1.x264.dxva-FraMeSToR 4.68GB

[复制链接]
电影首发 发表于 2017-1-23 08:03:00 | 显示全部楼层 |阅读模式





译  名 破裂
片  名 Rupture
年  代 2016
国  家 美国
类  别 科幻/惊悚
语  言 英语
上映日期 2016-11-4(英国)
片  长 102分钟
导  演 史蒂芬·西恩博格 Steven Shainberg
主  演 劳米·拉佩斯 Noomi Rapace
      彼得·斯特曼 Peter Stormare
      凯瑞·碧许 Kerry Bishé
      迈克尔·切克利斯 Michael Chiklis
      阿里•米伦 Ari Millen
      Morgan Kelly
      莱丝利·曼维尔 Lesley Manville
      塞尔吉奥·齐奥 Sergio Di Zio
      Percy Hynes White
      Jonathan Potts
      Brendan Jeffers
      Joel Labelle
      Jean Yoon


简  介


  瑞内是一位和自己12岁儿子住在一起的单身母亲,瑞内最大的恐惧就是蜘蛛。母子俩不知道的是,他们的一举一动都被偷偷的监视着。一天瑞内的车突然坏了下车检查时被一帮人粗暴的绑架而去。24小时后,瑞内发现自己被带到了实验室里,这里充斥着瑞内最害怕的蜘蛛。绑架瑞内的人告诉她,她特殊的基因可以激发她身体里的变异潜能并将这种异能完全的挥发出来。而唯一能够激发这种潜能的方法就是要忍受自己心里最可怕的恐惧。


Complete name : Rupture.2016.BluRay.720p.DTS.5.1.x264.dxva-FraMeSToR.mkv
Format : Matroska
Format version : Version 4 / Version 2
File size : 4.68 GiB
Duration : 1 h 41 min
Overall bit rate : 6 614 kb/s
Movie name : Rupture.2016.BluRay.720p.DTS.5.1.x264.dxva-FraMeSToR
Encoded date : UTC 2017-01-20 01:34:44
Writing application : mkvmerge v9.7.1 (\'Pandemonium\') 64bit
Writing library : libebml v1.3.4 + libmatroska v1.4.5

Video
ID : 1
Format : AVC
Format/Info : Advanced Video Codec
Format profile : [email protected]
Format settings, CABAC : Yes
Format settings, ReFrames : 12 frames
Codec ID : V_MPEG4/ISO/AVC
Duration : 1 h 41 min
Bit rate : 5 103 kb/s
Width : 1 280 pixels
Height : 536 pixels
Display aspect ratio : 2.40:1
Frame rate mode : Constant
Frame rate : 23.976 (24000/1001) FPS
Color space : YUV
Chroma subsampling : 4:2:0
Bit depth : 8 bits
Scan type : Progressive
Bits/(Pixel*Frame) : 0.310
Stream size : 3.61 GiB (77%)
Title : FraMeSToR / MPEG-4 AVC Video / 5104 kbps / 23.976 fps / High Profile 4.1
Writing library : x264 core 142 r2431+42 c69a006 tMod [[email protected]:2:0 X86_64]
Encoding settings : cabac=1 / ref=12 / deblock=1:-2:-2 / analyse=0x3:0x113 / me=umh / subme=10 / psy=1 / fade_compensate=0.00 / psy_rd=0.90:0.00 / mixed_ref=1 / me_range=48 / chroma_me=1 / trellis=2 / 8x8dct=1 / cqm=0 / deadzone=11,6 / fast_pskip=0 / chroma_qp_offset=-2 / threads=14 / lookahead_threads=2 / sliced_threads=0 / nr=0 / decimate=1 / interlaced=0 / bluray_compat=0 / constrained_intra=0 / fgo=0 / bframes=8 / b_pyramid=2 / b_adapt=2 / b_bias=0 / direct=3 / weightb=1 / open_gop=0 / weightp=2 / keyint=240 / keyint_min=23 / scenecut=40 / intra_refresh=0 / rc_lookahead=120 / rc=crf / mbtree=1 / crf=14.3500 / qcomp=0.60 / qpmin=0:0:0 / qpmax=34:34:34 / qpstep=4 / vbv_maxrate=30000 / vbv_bufsize=38000 / crf_max=0.0 / nal_hrd=none / filler=0 / ip_ratio=1.40 / aq=4:0.98 / aq-sensitivity=10.00 / aq-factor=1.00:1.00:1.00 / aq2=0 / aq3=0
Language : English
Default : Yes
Forced : No
Color range : Limited
Color primaries : BT.709
Transfer characteristics : BT.709
Matrix coefficients : BT.709

Audio
ID : 2
Format : DTS
Format/Info : Digital Theater Systems
Mode : 16
Format settings, Endianness : Big
Codec ID : A_DTS
Duration : 1 h 41 min
Bit rate mode : Constant
Bit rate : 1 509 kb/s
Channel(s) : 6 channels
Channel positions : Front: L C R, Side: L R, LFE
Sampling rate : 48.0 kHz
Frame rate : 93.750 FPS (512 spf)
Bit depth : 16 bits
Compression mode : Lossy
Stream size : 1.07 GiB (23%)
Title : FraMeSToR / English / DTS Core: 5.1 / 48 kHz / 1509 kbps / 16-bit
Language : English
Default : Yes
Forced : No

Menu
00:00:00.000 : en: 00:00:00.000
00:15:38.563 : en: 00:15:38.563
00:39:01.506 : en: 00:39:01.506
01:00:30.585 : en: 01:00:30.585
01:18:13.022 : en: 01:18:13.022
01:34:14.315 : en: 01:34:14.315


             Rupture.2016.BluRay.720p.DTS.5.1.x264.dxva-FraMeSToR[bt天堂 www.btbt4.com].torrent (6.6 KB, 下载次数: 0)

回复

使用道具 举报

小黑屋|百度云资源论坛 |网站地图

本网站所有资源来自网络,如无意中侵犯了您的权益,请发邮件至 [email protected],立即清除相关链接

GMT+8, 2020-7-7 17:43 , Processed in 0.100836 second(s), 23 queries .

Powered by Discuz! X3.2

© 2001-2013 Comsenz Inc.

快速回复 返回顶部 返回列表