百度云资源论坛

 找回密码
 立即注册
搜索

[喜剧片] 少女大盗/初来乍盗/处女大盗 The.Maiden.Heist.2009.1080p.BluRay.x264-LCHD 6.55GB . ...

[复制链接]
电影首发 发表于 2015-11-16 08:19:00 | 显示全部楼层 |阅读模式

译  名 少女大盗/初来乍盗/处女大盗/孤独的少女
片  名 The Maiden Heist
年  代 2009
国  家 美国
类  别 喜剧/犯罪
语  言 英语
上映日期 2009-05-29
片  长 90 分钟
导  演 皮特·休伊特 Peter Hewitt
主  演 摩根·弗里曼 Morgan Freeman
      克里斯托弗·沃肯 Christopher Walken
      马西娅·盖伊·哈登 Marcia Gay Harden
      威廉姆·H·梅西 William H. Macy
      维恩·埃维雷特 Wynn Everett
      Chuck Slavin


简  介


  罗杰(克里斯托弗·沃肯 Christopher Walken 饰),查尔斯(摩根·弗里曼 Morgan Freeman 饰)和乔治(威廉姆·H·梅西 William H. Macy 饰)是三个共事多年的同事兼好友,三人均供职于一家历史悠久的博物馆。在漫长的岁月里,三个伙伴对馆里朝夕相伴的藏品产生了深厚的感情,没想到,新上任的老板居然想要将现有的藏品全部转移。于是,三个老伙计一拍即合,决定要将被送走的文物偷回来。
  经过一番缜密的策划,三人开始了他们的行动。可现实并没有他们所计划的那么顺利,各种各样的意外让三人手忙脚乱,好在大多数都是有惊无险。他们的计划是否会被发现呢?行动又是否最终能以成功告终?




Video
ID                                       : 1
Format                                   : AVC
Format/Info                              : Advanced Video Codec
Format profile                           : High@L4.1
Format settings, CABAC                   : Yes
Format settings, ReFrames                : 5 frames
Codec ID                                 : V_MPEG4/ISO/AVC
Duration                                 : 1h 30mn
Bit rate                                 : 8 884 Kbps
Width                                    : 1 920 pixels
Height                                   : 800 pixels
Display aspect ratio                     : 2.40:1
Frame rate mode                          : Constant
Frame rate                               : 23.976 fps
Color space                              : YUV
Chroma subsampling                       : 4:2:0
Bit depth                                : 8 bits
Scan type                                : Progressive
Bits/(Pixel*Frame)                       : 0.241
Stream size                              : 5.46 GiB (83%)
Writing library                          : x264 core 95 r1592 95aacc4
Encoding settings                        : cabac=1 / ref=5 / deblock=1:-1:-1 / analyse=0x3:0x113 / me=umh / subme=7 / psy=1 / psy_rd=1.00:0.00 / mixed_ref=1 / me_range=16 / chroma_me=1 / trellis=2 / 8x8dct=1 / cqm=0 / deadzone=21,11 / fast_pskip=1 / chroma_qp_offset=-2 / threads=6 / sliced_threads=0 / nr=0 / decimate=1 / interlaced=0 / constrained_intra=0 / bframes=3 / b_pyramid=2 / b_adapt=2 / b_bias=0 / direct=3 / weightb=1 / weightp=2 / keyint=250 / keyint_min=25 / scenecut=40 / intra_refresh=0 / rc_lookahead=40 / rc=2pass / mbtree=1 / bitrate=8884 / ratetol=1.0 / qcomp=0.60 / qpmin=10 / qpmax=51 / qpstep=4 / cplxblur=20.0 / qblur=0.5 / vbv_maxrate=50000 / vbv_bufsize=50000 / ip_ratio=1.40 / aq=1:1.00 / nal_hrd=none
Language                                 : English
Default                                  : Yes
Forced                                   : Yes

Audio
ID                                       : 2
Format                                   : DTS
Format/Info                              : Digital Theater Systems
Mode                                     : 16
Format settings, Endianness              : Big
Codec ID                                 : A_DTS
Duration                                 : 1h 30mn
Bit rate mode                            : Constant
Bit rate                                 : 1 509 Kbps
Channel(s)                               : 6 channels
Channel positions                        : Front: L C R, Side: L R, LFE
Sampling rate                            : 48.0 KHz
Bit depth                                : 16 bits
Compression mode                         : Lossy
Stream size                              : 976 MiB (15%)
Language                                 : English
Default                                  : Yes
Forced                                   : Yes





                                                                                                                                                                                                       

                                                                                                                       
                                                                                                                                                                                                                                                        The.Maiden.Heist.2009.1080p.BluRay.x264-LCHD.torrent (66 KB, 下载次数: 0)

回复

使用道具 举报

小黑屋|百度云资源论坛 |网站地图

本网站所有资源来自网络,如无意中侵犯了您的权益,请发邮件至 aa635343@outlook.com,立即清除相关链接

GMT+8, 2019-9-16 12:01 , Processed in 0.078485 second(s), 23 queries .

Powered by Discuz! X3.2

© 2001-2013 Comsenz Inc.

快速回复 返回顶部 返回列表