百度云资源论坛

 找回密码
 立即注册
搜索

[喜剧片] 沙地传奇/难忘的夏天 The.Sandlot.1993.1080p.BluRay.x264.DTS-FGT 12.34GB

[复制链接]
电影首发 发表于 2015-11-16 08:19:00 | 显示全部楼层 |阅读模式

译  名 沙地传奇/难忘的夏天
片  名 The Sandlot
年  代 1993
国  家 美国
类  别 喜剧/剧情/家庭/运动
语  言 英语
上映日期 1993-04-07
片  长 101 分钟
导  演 David M. Evans
主  演 Tom Guiry
      Mike Vitar
      Patrick Renna


简  介


  斯科蒂随改嫁的母亲来到了人生地不熟的小镇,八个小男孩经常在小镇的一块废弃的操场打棒球。斯科蒂和八个小男孩中的头儿——球技高超的本尼交上了朋友。性格腼腆,对棒球一无所知的斯科蒂在本尼的帮助下,渐渐地融入了这个集体,同他们建立了兄弟般的友谊。就在那个夏天,就是那段友情,成了孩子们心中永远的回忆。




Video
ID                                       : 1
Format                                   : AVC
Format/Info                              : Advanced Video Codec
Format profile                           : [email protected]
Format settings, CABAC                   : Yes
Format settings, ReFrames                : 5 frames
Codec ID                                 : V_MPEG4/ISO/AVC
Duration                                 : 1h 41mn
Bit rate                                 : 15.6 Mbps
Width                                    : 1 920 pixels
Height                                   : 816 pixels
Display aspect ratio                     : 2.35:1
Frame rate mode                          : Constant
Frame rate                               : 23.976 fps
Color space                              : YUV
Chroma subsampling                       : 4:2:0
Bit depth                                : 8 bits
Scan type                                : Progressive
Bits/(Pixel*Frame)                       : 0.416
Stream size                              : 11.0 GiB (89%)
Writing library                          : x264 core 133 r2334+704+50 a7549b7 tMod [[email protected] X86_64]
Encoding settings                        : opencl=1 / cabac=1 / ref=5 / deblock=1:-3:-3 / analyse=0x3:0x133 / me=umh / subme=11 / psy=1 / fade_compensate=0.00 / psy_rd=1.10:0.25 / mixed_ref=1 / me_range=64 / chroma_me=1 / trellis=2 / 8x8dct=1 / cqm=0 / deadzone=21,11 / fast_pskip=0 / chroma_qp_offset=-4 / threads=12 / lookahead_threads=3 / sliced_threads=0 / nr=0 / decimate=1 / interlaced=0 / bluray_compat=0 / constrained_intra=0 / fgo=0 / bframes=16 / b_pyramid=2 / b_adapt=2 / b_bias=0 / direct=3 / weightb=1 / open_gop=0 / weightp=2 / keyint=240 / keyint_min=24 / scenecut=40 / intra_refresh=0 / rc_lookahead=200 / rc=crf / mbtree=1 / crf=18.7500 / qcomp=0.60 / qpmin=0 / qpmax=69 / qpstep=4 / ip_ratio=1.40 / aq=2:0.88 / aq-sensitivity=10.00 / aq-factor=1.00:1.00:1.00 / aq2=0 / aq3=0
Language                                 : English
Default                                  : Yes
Forced                                   : No

Audio
ID                                       : 2
Format                                   : DTS
Format/Info                              : Digital Theater Systems
Mode                                     : 16
Format settings, Endianness              : Big
Codec ID                                 : A_DTS
Duration                                 : 1h 41mn
Bit rate mode                            : Constant
Bit rate                                 : 1 509 Kbps
Channel(s)                               : 6 channels
Channel positions                        : Front: L C R, Side: L R, LFE
Sampling rate                            : 48.0 KHz
Bit depth                                : 24 bits
Compression mode                         : Lossy
Stream size                              : 1.07 GiB (9%)
Language                                 : English
Default                                  : Yes
Forced                                   : No

Text #1
ID                                       : 3
Format                                   : PGS
Muxing mode                              : zlib
Codec ID                                 : S_HDMV/PGS
Codec ID/Info                            : Picture based subtitle format used on BDs/HD-DVDs
Language                                 : English
Default                                  : No
Forced                                   : No

Text #2
ID                                       : 4
Format                                   : PGS
Muxing mode                              : zlib
Codec ID                                 : S_HDMV/PGS
Codec ID/Info                            : Picture based subtitle format used on BDs/HD-DVDs
Language                                 : Spanish
Default                                  : No
Forced                                   : No

Text #3
ID                                       : 5
Format                                   : PGS
Muxing mode                              : zlib
Codec ID                                 : S_HDMV/PGS
Codec ID/Info                            : Picture based subtitle format used on BDs/HD-DVDs
Language                                 : French
Default                                  : No
Forced                                   : No

Menu
00:00:00.000                             : en:00:00:00.000
00:03:00.972                             : en:00:03:00.972
00:04:59.090                             : en:00:04:59.090
00:08:28.341                             : en:00:08:28.341
00:10:23.289                             : en:00:10:23.289
00:13:40.278                             : en:00:13:40.278
00:16:16.392                             : en:00:16:16.392
00:23:35.581                             : en:00:23:35.581
00:29:02.866                             : en:00:29:02.866
00:33:09.905                             : en:00:33:09.905
00:35:32.255                             : en:00:35:32.255
00:41:42.250                             : en:00:41:42.250
00:44:12.275                             : en:00:44:12.275
00:48:53.097                             : en:00:48:53.097
00:53:20.656                             : en:00:53:20.656
00:55:33.038                             : en:00:55:33.038
01:00:58.864                             : en:01:00:58.864
01:02:52.102                             : en:01:02:52.102
01:06:07.130                             : en:01:06:07.130
01:09:18.863                             : en:01:09:18.863
01:11:14.979                             : en:01:11:14.979
01:14:20.498                             : en:01:14:20.498
01:17:44.076                             : en:01:17:44.076
01:26:39.486                             : en:01:26:39.486
01:28:50.367                             : en:01:28:50.367
01:33:17.383                             : en:01:33:17.383
01:34:10.228                             : en:01:34:10.228
01:37:22.837                             : en:01:37:22.837





                                                                                                                                                                                                       

                                                                                                                       
                                                                                                                                                                                                                                                        The.Sandlot.1993.1080p.BluRay.x264.DTS-FGT.torrent (62.28 KB, 下载次数: 0)

回复

使用道具 举报

小黑屋|百度云资源论坛 |网站地图

本网站所有资源来自网络,如无意中侵犯了您的权益,请发邮件至 [email protected],立即清除相关链接

GMT+8, 2019-12-13 12:59 , Processed in 0.094715 second(s), 23 queries .

Powered by Discuz! X3.2

© 2001-2013 Comsenz Inc.

快速回复 返回顶部 返回列表