百度云资源论坛

 找回密码
 立即注册
搜索

[恐怖片] 13号星期五4/黑色星期五4 终结篇 Friday.the.13th.Part.4.1984.1080p.BluRay.x264.DTS ...

[复制链接]
电影首发 发表于 2015-11-16 08:19:00 | 显示全部楼层 |阅读模式

译  名 十三号星期五:终结篇/黑色星期五:终结篇/十三不祥日:终结篇
片  名 Friday the 13th: The Final Chapter
年  代 1984
国  家 美国
类  别 恐怖
语  言 英语
上映日期 1984-04-13
片  长 91 分钟/USA: 97 分钟(uncut version)
导  演 Joseph Zito
主  演 Kimberly Beck
      Peter Barton
      科里·费尔德曼 Corey Feldman
      Erich Anderson
      克里斯平·格洛弗 Crispin Glover
      Clyde Hayes


简  介


  上一集的大屠杀之后,杰森和十个年轻人的尸体被警方收敛,然而在医院中,杰森再次醒来,将夜班医护杀死,不知所踪……保罗、莎拉(Barbara Howard 饰)等六个年轻人租下了林中的木屋度假,木屋旁边住着汤米、丽丝姐弟以及他们的母亲一家。保罗等人到水晶湖中戏水,全然不知这里曾经上演的血腥故事。汤米和丽丝因汽车抛锚结识了自称是猎熊人的青年罗布(Erich Anderson 饰),罗布拜访汤米一家后在森林中安营,夜幕降临时,莎拉等人和新认识的姑娘在屋中狂欢,再次归来的杰森如常开始了夜色中的猎杀。汤米和丽丝发现母亲失踪,四处寻找时再次遇见罗布,原来罗布的妹妹被杰森所害,他特意在湖区驻扎,寻找向杰森复仇的机会……


Video
ID                                       : 1
Format                                   : AVC
Format/Info                              : Advanced Video Codec
Format profile                           : High@L4.1
Format settings, CABAC                   : Yes
Format settings, ReFrames                : 4 frames
Codec ID                                 : V_MPEG4/ISO/AVC
Duration                                 : 1h 31mn
Bit rate                                 : 10.9 Mbps
Width                                    : 1 920 pixels
Height                                   : 1 080 pixels
Display aspect ratio                     : 16:9
Frame rate mode                          : Constant
Frame rate                               : 23.976 fps
Color space                              : YUV
Chroma subsampling                       : 4:2:0
Bit depth                                : 8 bits
Scan type                                : Progressive
Bits/(Pixel*Frame)                       : 0.220
Stream size                              : 6.70 GiB (86%)
Writing library                          : x264 core 133 r2334+704+50 a7549b7 tMod [8-bit@4:2:0 X86_64]
Encoding settings                        : cabac=1 / ref=4 / deblock=1:-3:-3 / analyse=0x3:0x113 / me=umh / subme=7 / psy=1 / fade_compensate=0.00 / psy_rd=1.00:0.00 / mixed_ref=1 / me_range=16 / chroma_me=1 / trellis=1 / 8x8dct=1 / cqm=0 / deadzone=21,11 / fast_pskip=1 / chroma_qp_offset=-2 / threads=16 / lookahead_threads=2 / sliced_threads=0 / nr=0 / decimate=1 / interlaced=0 / bluray_compat=0 / constrained_intra=0 / fgo=0 / bframes=3 / b_pyramid=2 / b_adapt=1 / b_bias=0 / direct=3 / weightb=1 / open_gop=0 / weightp=2 / keyint=240 / keyint_min=23 / scenecut=40 / intra_refresh=0 / rc_lookahead=50 / rc=abr / mbtree=1 / bitrate=10941 / ratetol=1.0 / qcomp=0.60 / qpmin=0 / qpmax=69 / qpstep=4 / ip_ratio=1.40 / aq=1:1.00 / aq-sensitivity=10.00 / aq-factor=1.00:1.00:1.00 / aq2=0 / aq3=0
Language                                 : English
Default                                  : Yes
Forced                                   : No

Audio
ID                                       : 2
Format                                   : DTS
Format/Info                              : Digital Theater Systems
Mode                                     : 16
Format settings, Endianness              : Big
Codec ID                                 : A_DTS
Duration                                 : 1h 31mn
Bit rate mode                            : Constant
Bit rate                                 : 1 509 Kbps
Channel(s)                               : 6 channels
Channel positions                        : Front: L C R, Side: L R, LFE
Sampling rate                            : 48.0 KHz
Bit depth                                : 24 bits
Compression mode                         : Lossy
Stream size                              : 987 MiB (12%)
Language                                 : English
Default                                  : Yes
Forced                                   : No

Text #1
ID                                       : 3
Format                                   : PGS
Muxing mode                              : zlib
Codec ID                                 : S_HDMV/PGS
Codec ID/Info                            : Picture based subtitle format used on BDs/HD-DVDs
Language                                 : English
Default                                  : Yes
Forced                                   : No

Text #2
ID                                       : 4
Format                                   : PGS
Muxing mode                              : zlib
Codec ID                                 : S_HDMV/PGS
Codec ID/Info                            : Picture based subtitle format used on BDs/HD-DVDs
Language                                 : French
Default                                  : No
Forced                                   : No

Text #3
ID                                       : 5
Format                                   : PGS
Muxing mode                              : zlib
Codec ID                                 : S_HDMV/PGS
Codec ID/Info                            : Picture based subtitle format used on BDs/HD-DVDs
Language                                 : Spanish
Default                                  : No
Forced                                   : No

Menu
00:00:00.000                             : en:00:00:00.000
00:04:44.910                             : en:00:04:44.910
00:08:26.965                             : en:00:08:26.965
00:16:16.058                             : en:00:16:16.058
00:20:03.994                             : en:00:20:03.994
00:29:10.624                             : en:00:29:10.624
00:35:05.729                             : en:00:35:05.729
00:41:00.750                             : en:00:41:00.750
00:49:17.788                             : en:00:49:17.788
00:53:05.724                             : en:00:53:05.724
00:59:52.714                             : en:00:59:52.714
01:08:03.913                             : en:01:08:03.913
01:16:47.978                             : en:01:16:47.978
01:26:40.278                             : en:01:26:40.278






                                                                                                                                                                                                       

                                                                                                                       
                                                                                                                                                                                                                                                        Friday.The.13th.The.Final.Chapter.1984.1080p.BluRay.x264.DTS-FGT.torrent (78.83 KB, 下载次数: 0)

回复

使用道具 举报

小黑屋|百度云资源论坛 |网站地图

本网站所有资源来自网络,如无意中侵犯了您的权益,请发邮件至 aa635343@outlook.com,立即清除相关链接

GMT+8, 2019-11-19 06:16 , Processed in 0.099813 second(s), 23 queries .

Powered by Discuz! X3.2

© 2001-2013 Comsenz Inc.

快速回复 返回顶部 返回列表