百度云资源论坛

 找回密码
 立即注册
搜索

[恐怖片] 13号星期五5/黑色星期五5 Friday.the.13th.Part.5.1985.1080p.BluRay.x264.DTS-FGT 10 ...

[复制链接]
电影首发 发表于 2015-11-16 08:19:00 | 显示全部楼层 |阅读模式

译  名 十三号星期五5/13号星期五5/黑色星期五5
片  名 Friday the 13th: A New Beginning
年  代 1985
国  家 美国
类  别 剧情/恐怖/悬疑/惊悚
语  言 英语
上映日期 1985-03-22
片  长 92 分钟
导  演 丹尼 斯坦曼 (Danny Steinmann)


简  介


  With Jason dead and buried, someone has decided to begin a new killing spree using Jason's old M.O. The inhabitants of the remote santuary had better beware.
  當傑森不醒人事時,另一個熱心人士決定拿起傑森的道具,繼續服務不知死活的青年男女…。





Video
ID                                       : 1
Format                                   : AVC
Format/Info                              : Advanced Video Codec
Format profile                           : High@L4.1
Format settings, CABAC                   : Yes
Format settings, ReFrames                : 3 frames
Codec ID                                 : V_MPEG4/ISO/AVC
Duration                                 : 1h 32mn
Bit rate                                 : 14.0 Mbps
Width                                    : 1 920 pixels
Height                                   : 1 080 pixels
Display aspect ratio                     : 16:9
Frame rate mode                          : Constant
Frame rate                               : 23.976 fps
Color space                              : YUV
Chroma subsampling                       : 4:2:0
Bit depth                                : 8 bits
Scan type                                : Progressive
Bits/(Pixel*Frame)                       : 0.282
Stream size                              : 8.83 GiB (88%)
Writing library                          : x264 core 125 r2208 d9d2288
Encoding settings                        : cabac=1 / ref=4 / deblock=1:-1:-1 / analyse=0x3:0x133 / me=umh / subme=11 / psy=1 / psy_rd=1.15:0.25 / mixed_ref=1 / me_range=24 / chroma_me=1 / trellis=2 / 8x8dct=1 / cqm=0 / deadzone=21,11 / fast_pskip=0 / chroma_qp_offset=-4 / threads=12 / lookahead_threads=2 / sliced_threads=0 / nr=0 / decimate=1 / interlaced=0 / bluray_compat=0 / constrained_intra=0 / bframes=6 / b_pyramid=1 / b_adapt=2 / b_bias=0 / direct=3 / weightb=1 / open_gop=0 / weightp=2 / keyint=250 / keyint_min=23 / scenecut=40 / intra_refresh=0 / rc_lookahead=50 / rc=2pass / mbtree=1 / bitrate=14000 / ratetol=1.0 / qcomp=0.60 / qpmin=0 / qpmax=69 / qpstep=4 / cplxblur=20.0 / qblur=0.5 / ip_ratio=1.40 / aq=1:1.00
Language                                 : English
Default                                  : Yes
Forced                                   : No

Audio
ID                                       : 2
Format                                   : DTS
Format/Info                              : Digital Theater Systems
Mode                                     : 16
Format settings, Endianness              : Big
Codec ID                                 : A_DTS
Duration                                 : 1h 32mn
Bit rate mode                            : Constant
Bit rate                                 : 1 509 Kbps
Channel(s)                               : 6 channels
Channel positions                        : Front: L C R, Side: L R, LFE
Sampling rate                            : 48.0 KHz
Bit depth                                : 24 bits
Compression mode                         : Lossy
Stream size                              : 996 MiB (10%)
Language                                 : English
Default                                  : Yes
Forced                                   : No

Text
ID                                       : 3
Format                                   : UTF-8
Codec ID                                 : S_TEXT/UTF8
Codec ID/Info                            : UTF-8 Plain Text
Language                                 : English
Default                                  : Yes
Forced                                   : No

Menu
00:00:00.000                             : en:Chapter 01
00:05:46.512                             : en:Chapter 02
00:11:51.711                             : en:Chapter 03
00:17:51.028                             : en:Chapter 04
00:23:05.967                             : en:Chapter 05
00:27:47.957                             : en:Chapter 06
00:31:18.334                             : en:Chapter 07
00:39:04.675                             : en:Chapter 08
00:46:29.286                             : en:Chapter 09
00:56:10.116                             : en:Chapter 10
01:00:16.487                             : en:Chapter 11
01:08:06.540                             : en:Chapter 12
01:16:05.435                             : en:Chapter 13
01:23:17.826                             : en:Chapter 14





                                                                                                                                                                                                       

                                                                                                                       
                                                                                                                                                                                                                                                        Friday.the.13th.A.New.Beginning.1985.1080p.BluRay.x264.DTS-FGT.torrent (100.64 KB, 下载次数: 0)

回复

使用道具 举报

小黑屋|百度云资源论坛 |网站地图

本网站所有资源来自网络,如无意中侵犯了您的权益,请发邮件至 aa635343@outlook.com,立即清除相关链接

GMT+8, 2019-11-21 06:04 , Processed in 0.100074 second(s), 23 queries .

Powered by Discuz! X3.2

© 2001-2013 Comsenz Inc.

快速回复 返回顶部 返回列表