百度云资源论坛

 找回密码
 立即注册
搜索

[恐怖片] 13号星期五6/黑色星期五6 Friday.the.13th.Part.6.1986.1080p.BluRay.x264.DTS-FGT 9. ...

[复制链接]
电影首发 发表于 2015-11-16 08:19:00 | 显示全部楼层 |阅读模式

译  名 十三号星期五6/鬼锰脚/黑色星期五第六集/黑色星期五 6:杰森复活
片  名 Friday the 13th Part VI: Jason Lives
年  代 1986
国  家 美国
类  别 喜剧/恐怖/惊悚
语  言 英语
上映日期 1986-08-01
片  长 86 分钟/Poland: 87 分钟
导  演 汤姆 麦克洛克林 (Tom McLoughlin)


简  介


  被杰森杀害了双亲的汤米(汤姆·马修斯 Thom Mathews 饰)在一个雨夜,与好友来到墓地,他们将杰森的坟墓打开,试图烧毁尸体泄愤,突然天降闪电击中杰森的尸体,在汤米惊异的眼光中,杀人狂杰森居然复活了!大惊失色的汤米向当地的加里斯探长(David Kagen 饰)求援,但后者认为杰森已成历史,汤米的表现不过是精神病的后遗影响。在这个黑色星期五的夜里,杰森回到水晶湖营地——如今这里已经改名为绿森林,似乎是为了把那些恐怖的往事遗忘——对来这里参加露营的人们以及营地辅导员们大开杀戒,加里斯探长认为凶手是已经走火入魔的汤米,而此时此刻,汤米在加里斯女儿梅根(Jennifer Cooke 饰)协助下,试图将杰森再次送回地狱……




Video
ID                                       : 1
Format                                   : AVC
Format/Info                              : Advanced Video Codec
Format profile                           : High@L4.1
Format settings, CABAC                   : Yes
Format settings, ReFrames                : 3 frames
Codec ID                                 : V_MPEG4/ISO/AVC
Duration                                 : 1h 27mn
Bit rate                                 : 14.0 Mbps
Width                                    : 1 920 pixels
Height                                   : 1 080 pixels
Display aspect ratio                     : 16:9
Frame rate mode                          : Constant
Frame rate                               : 23.976 fps
Color space                              : YUV
Chroma subsampling                       : 4:2:0
Bit depth                                : 8 bits
Scan type                                : Progressive
Bits/(Pixel*Frame)                       : 0.282
Stream size                              : 8.34 GiB (88%)
Writing library                          : x264 core 125 r2208 d9d2288
Encoding settings                        : cabac=1 / ref=4 / deblock=1:-1:-1 / analyse=0x3:0x133 / me=umh / subme=11 / psy=1 / psy_rd=1.15:0.25 / mixed_ref=1 / me_range=24 / chroma_me=1 / trellis=2 / 8x8dct=1 / cqm=0 / deadzone=21,11 / fast_pskip=0 / chroma_qp_offset=-4 / threads=12 / lookahead_threads=2 / sliced_threads=0 / nr=0 / decimate=1 / interlaced=0 / bluray_compat=0 / constrained_intra=0 / bframes=6 / b_pyramid=1 / b_adapt=2 / b_bias=0 / direct=3 / weightb=1 / open_gop=0 / weightp=2 / keyint=250 / keyint_min=23 / scenecut=40 / intra_refresh=0 / rc_lookahead=50 / rc=2pass / mbtree=1 / bitrate=14000 / ratetol=1.0 / qcomp=0.60 / qpmin=0 / qpmax=69 / qpstep=4 / cplxblur=20.0 / qblur=0.5 / ip_ratio=1.40 / aq=1:1.00
Language                                 : English
Default                                  : Yes
Forced                                   : No

Audio
ID                                       : 2
Format                                   : DTS
Format/Info                              : Digital Theater Systems
Mode                                     : 16
Format settings, Endianness              : Big
Codec ID                                 : A_DTS
Duration                                 : 1h 27mn
Bit rate mode                            : Constant
Bit rate                                 : 1 509 Kbps
Channel(s)                               : 6 channels
Channel positions                        : Front: L C R, Side: L R, LFE
Sampling rate                            : 48.0 KHz
Bit depth                                : 24 bits
Compression mode                         : Lossy
Stream size                              : 941 MiB (10%)
Language                                 : English
Default                                  : Yes
Forced                                   : No

Text
ID                                       : 3
Format                                   : UTF-8
Codec ID                                 : S_TEXT/UTF8
Codec ID/Info                            : UTF-8 Plain Text
Language                                 : English
Default                                  : Yes
Forced                                   : No

Menu
00:00:00.000                             : en:Chapter 01
00:06:09.619                             : en:Chapter 02
00:12:06.308                             : en:Chapter 03
00:15:30.179                             : en:Chapter 04
00:20:10.959                             : en:Chapter 05
00:27:25.852                             : en:Chapter 06
00:35:07.522                             : en:Chapter 07
00:41:29.278                             : en:Chapter 08
00:46:23.781                             : en:Chapter 09
00:49:55.283                             : en:Chapter 10
00:55:46.760                             : en:Chapter 11
00:59:19.973                             : en:Chapter 12
01:03:22.799                             : en:Chapter 13
01:08:05.122                             : en:Chapter 14
01:14:13.615                             : en:Chapter 15
01:21:58.788                             : en:Chapter 16





                                                                                                                                                                                                       

                                                                                                                       
                                                                                                                                                                                                                                                        Jason.Lives.Friday.the.13th.Part.VI.1986.1080p.BluRay.x264.DTS.torrent (95.13 KB, 下载次数: 0)

回复

使用道具 举报

小黑屋|百度云资源论坛 |网站地图

本网站所有资源来自网络,如无意中侵犯了您的权益,请发邮件至 aa635343@outlook.com,立即清除相关链接

GMT+8, 2019-8-19 09:15 , Processed in 0.085429 second(s), 23 queries .

Powered by Discuz! X3.2

© 2001-2013 Comsenz Inc.

快速回复 返回顶部 返回列表