百度云资源论坛

 找回密码
 立即注册
搜索

[恐怖片] 13号星期五7/黑色星期五7 Friday.the.13th.Part.7.1988.1080p.BluRay.x264.DTS-FGT 9. ...

[复制链接]
电影首发 发表于 2015-11-16 08:19:00 | 显示全部楼层 |阅读模式

译  名 十三号星期五7/十三号星期五第七集/黑色星期五 7
片  名 Friday the 13th Part VII: The New Blood
年  代 1988
国  家 美国
类  别 剧情/恐怖/爱情
语  言 英语
上映日期 1988-05-13
片  长 88 分钟/UK: 84 分钟(DVD)
导  演 John Carl Buechler


简  介


  在汤米·贾维斯(Tommy Jarvis)把杰森炼锁在水晶湖底多年之后,一位有特异功能的年青人又不小心把杰森放了出来,杰森于是又回到了水晶湖营地重操旧业。





Video
ID                                       : 1
Format                                   : AVC
Format/Info                              : Advanced Video Codec
Format profile                           : High@L4.1
Format settings, CABAC                   : Yes
Format settings, ReFrames                : 3 frames
Codec ID                                 : V_MPEG4/ISO/AVC
Duration                                 : 1h 28mn
Bit rate                                 : 14.0 Mbps
Width                                    : 1 920 pixels
Height                                   : 1 080 pixels
Display aspect ratio                     : 16:9
Frame rate mode                          : Constant
Frame rate                               : 23.976 fps
Color space                              : YUV
Chroma subsampling                       : 4:2:0
Bit depth                                : 8 bits
Scan type                                : Progressive
Bits/(Pixel*Frame)                       : 0.282
Stream size                              : 8.45 GiB (88%)
Writing library                          : x264 core 125 r2208 d9d2288
Encoding settings                        : cabac=1 / ref=4 / deblock=1:-1:-1 / analyse=0x3:0x133 / me=umh / subme=11 / psy=1 / psy_rd=1.15:0.25 / mixed_ref=1 / me_range=24 / chroma_me=1 / trellis=2 / 8x8dct=1 / cqm=0 / deadzone=21,11 / fast_pskip=0 / chroma_qp_offset=-4 / threads=12 / lookahead_threads=2 / sliced_threads=0 / nr=0 / decimate=1 / interlaced=0 / bluray_compat=0 / constrained_intra=0 / bframes=6 / b_pyramid=1 / b_adapt=2 / b_bias=0 / direct=3 / weightb=1 / open_gop=0 / weightp=2 / keyint=250 / keyint_min=23 / scenecut=40 / intra_refresh=0 / rc_lookahead=50 / rc=2pass / mbtree=1 / bitrate=14000 / ratetol=1.0 / qcomp=0.60 / qpmin=0 / qpmax=69 / qpstep=4 / cplxblur=20.0 / qblur=0.5 / ip_ratio=1.40 / aq=1:1.00
Language                                 : English
Default                                  : Yes
Forced                                   : No

Audio
ID                                       : 2
Format                                   : DTS
Format/Info                              : Digital Theater Systems
Mode                                     : 16
Format settings, Endianness              : Big
Codec ID                                 : A_DTS
Duration                                 : 1h 28mn
Bit rate mode                            : Constant
Bit rate                                 : 1 509 Kbps
Channel(s)                               : 6 channels
Channel positions                        : Front: L C R, Side: L R, LFE
Sampling rate                            : 48.0 KHz
Bit depth                                : 24 bits
Compression mode                         : Lossy
Stream size                              : 953 MiB (10%)
Language                                 : English
Default                                  : Yes
Forced                                   : No

Text
ID                                       : 3
Format                                   : UTF-8
Codec ID                                 : S_TEXT/UTF8
Codec ID/Info                            : UTF-8 Plain Text
Language                                 : English
Default                                  : Yes
Forced                                   : No

Menu
00:00:00.000                             : en:Chapter 01
00:05:20.737                             : en:Chapter 02
00:09:51.090                             : en:Chapter 03
00:16:37.663                             : en:Chapter 04
00:21:01.343                             : en:Chapter 05
00:25:18.892                             : en:Chapter 06
00:31:13.621                             : en:Chapter 07
00:37:54.480                             : en:Chapter 08
00:45:52.916                             : en:Chapter 09
00:50:32.404                             : en:Chapter 10
00:54:31.351                             : en:Chapter 11
01:00:31.669                             : en:Chapter 12
01:05:34.597                             : en:Chapter 13
01:12:28.469                             : en:Chapter 14
01:21:56.786                             : en:Chapter 15






                                                                                                                                                                                                       

                                                                                                                       
                                                                                                                                                                                                                                                        Friday.the.13th.Part.VII.The.New.Blood.1988.1080p.BluRay.x264.DTS-FGT.torrent (96.34 KB, 下载次数: 0)

回复

使用道具 举报

小黑屋|百度云资源论坛 |网站地图

本网站所有资源来自网络,如无意中侵犯了您的权益,请发邮件至 aa635343@outlook.com,立即清除相关链接

GMT+8, 2019-9-16 12:32 , Processed in 0.081233 second(s), 23 queries .

Powered by Discuz! X3.2

© 2001-2013 Comsenz Inc.

快速回复 返回顶部 返回列表