百度云资源论坛

 找回密码
 立即注册
搜索

[恐怖片] 13号星期五8/黑色星期五8 Friday.the.13th.Part.8.1989.1080p.BluRay.x264.DTS-FGT 9. ...

[复制链接]
电影首发 发表于 2015-11-16 08:19:00 | 显示全部楼层 |阅读模式

译  名 十三号星期五8/黑色星期五第八集:杰森侵入曼哈顿
片  名 Friday the 13th Part VIII: Jason Takes Manhattan
年  代 1989
国  家 美国
类  别 恐怖
语  言 英语
上映日期 1989-07-28
片  长 100 分钟
导  演 Rob Hedden
主  演 Todd Caldecott
      Tiffany Paulsen
      Kane Hodder
      Tim Mirkovich


简  介


  当夜色笼罩,纽约变身为罪恶之城,在羞于见光的角落里,自有一群人按照自己的阴暗方式生存着……杰森的尸体静静的留在湖底,直到这天,一对游船上的情侣无意中将湖底的电缆割断,流泄的电能将杰森再度唤醒,杀人狂翻身上船,顺手杀死了情侣。同时,一艘开往纽约的游船在码头即将起航,古板严苛的教师查尔斯(彼特·马克·里奇曼 Peter Mark Richman 饰)与一班学生们将搭乘该船前往曼哈顿。杰森潜行到了大船上,按部就班残杀每一个落单的乘客,当船长也被杰森杀害后,幸存的人们终于意识到危险降临,他们试图团结一致对抗杰森,这次前往曼哈顿的流程,变成了不折不扣的生存考验……




Video
ID                                       : 1
Format                                   : AVC
Format/Info                              : Advanced Video Codec
Format profile                           : High@L4.1
Format settings, CABAC                   : Yes
Format settings, ReFrames                : 4 frames
Codec ID                                 : V_MPEG4/ISO/AVC
Duration                                 : 1h 40mn
Bit rate                                 : 12.3 Mbps
Width                                    : 1 920 pixels
Height                                   : 1 080 pixels
Display aspect ratio                     : 16:9
Frame rate mode                          : Constant
Frame rate                               : 23.976 fps
Color space                              : YUV
Chroma subsampling                       : 4:2:0
Bit depth                                : 8 bits
Scan type                                : Progressive
Bits/(Pixel*Frame)                       : 0.247
Stream size                              : 8.63 GiB (87%)
Language                                 : English
Default                                  : Yes
Forced                                   : No

Audio
ID                                       : 2
Format                                   : DTS
Format/Info                              : Digital Theater Systems
Mode                                     : 16
Format settings, Endianness              : Big
Codec ID                                 : A_DTS
Duration                                 : 1h 40mn
Bit rate mode                            : Constant
Bit rate                                 : 1 509 Kbps
Channel(s)                               : 6 channels
Channel positions                        : Front: L C R, Side: L R, LFE
Sampling rate                            : 48.0 KHz
Bit depth                                : 24 bits
Compression mode                         : Lossy
Stream size                              : 1.06 GiB (11%)
Language                                 : English
Default                                  : Yes
Forced                                   : No

Text #1
ID                                       : 3
Format                                   : PGS
Muxing mode                              : zlib
Codec ID                                 : S_HDMV/PGS
Codec ID/Info                            : Picture based subtitle format used on BDs/HD-DVDs
Language                                 : English
Default                                  : No
Forced                                   : No

Text #2
ID                                       : 4
Format                                   : PGS
Muxing mode                              : zlib
Codec ID                                 : S_HDMV/PGS
Codec ID/Info                            : Picture based subtitle format used on BDs/HD-DVDs
Language                                 : French
Default                                  : No
Forced                                   : No

Text #3
ID                                       : 5
Format                                   : PGS
Muxing mode                              : zlib
Codec ID                                 : S_HDMV/PGS
Codec ID/Info                            : Picture based subtitle format used on BDs/HD-DVDs
Language                                 : Spanish
Default                                  : No
Forced                                   : No

Menu
00:00:00.000                             : en:00:00:00.000
00:07:03.423                             : en:00:07:03.423
00:11:43.328                             : en:00:11:43.328
00:16:05.256                             : en:00:16:05.256
00:22:24.468                             : en:00:22:24.468
00:28:49.269                             : en:00:28:49.269
00:33:52.822                             : en:00:33:52.822
00:39:08.638                             : en:00:39:08.638
00:44:53.190                             : en:00:44:53.190
00:48:42.378                             : en:00:48:42.378
00:55:11.725                             : en:00:55:11.725
01:01:17.674                             : en:01:01:17.674
01:07:18.534                             : en:01:07:18.534
01:13:36.871                             : en:01:13:36.871
01:19:50.160                             : en:01:19:50.160
01:26:44.449                             : en:01:26:44.449
01:35:20.757                             : en:01:35:20.757





                                                                                                                                                                                                       

                                                                                                                       
                                                                                                                                                                                                                                                        Friday.The.13th.Part.VIII.Jason.Takes.Manhattan.1989.1080p.BluRay.x264.DTS-FGT.torrent (99.52 KB, 下载次数: 0)

回复

使用道具 举报

小黑屋|百度云资源论坛 |网站地图

本网站所有资源来自网络,如无意中侵犯了您的权益,请发邮件至 aa635343@outlook.com,立即清除相关链接

GMT+8, 2019-11-16 06:33 , Processed in 0.081468 second(s), 23 queries .

Powered by Discuz! X3.2

© 2001-2013 Comsenz Inc.

快速回复 返回顶部 返回列表