百度云资源论坛

 找回密码
 立即注册
搜索

13号星期五/黑色星期五 Friday.The.13th.2009.EXTENDED.1080p.BluRay.x264.DTS-FGT 6. ...

[复制链接]
电影首发 发表于 2015-11-16 08:19:00 | 显示全部楼层 |阅读模式

译  名 黑色星期五/13号星期五
片  名 Friday the 13th
年  代 2009
国  家 美国
类  别 恐怖
语  言 英语
上映日期 2009-02-13
片  长 97 分钟/106 分钟(extended edition)
导  演 马库斯·尼斯佩尔 Marcus Nispel
主  演 贾德·帕达里克 Jared Padalecki
      丹妮尔·帕娜贝克 Danielle Panabaker
      阿曼达·莱赫提 Amanda Righetti
      特拉维斯·范·文克 Travis Van Winkle
      艾伦·余 Aaron Yoo
      德里克·梅耶斯 Derek Mears
      乔纳森·萨多斯基 Jonathan Sadowski
      朱丽安娜·古尔 Julianna Guill
      本·费德曼 Ben Feldman
      亚伦·艾斯卡本塔 Arlen Escarpeta
      瑞恩·汉森 Ryan Hansen
      薇拉·福特 Willa Ford
      Nick Mennell
      阿美莉嘉·奥利沃 America Olivo
      凯尔·戴维斯 Kyle Davis


简  介


  少女惠特妮•米勒(Amanda Righetti 饰)及其男友麦克(Nick Mennell 饰)等一行五人前往水晶湖森林游玩,快乐的假期很快为血腥杀戮所取代,躲藏在暗处的杀人魔王杰森(Derek Mears 饰)突然出现,将青年男女们逐一杀害。
  六周后,大学生特伦特(Travis Van Winkle 饰)及其一班朋友又来到水晶湖的小木屋内狂欢,他们偶遇寻找妹妹惠特妮的克雷(Jared Padalecki 饰)。虽然警方声称此地不见失踪人员身影,但克雷坚信妹妹必然身在丛林某处。与此同时,特伦特的两个朋友遭到杰森袭击,这群惶恐的大学生和克雷联合起来,共同面对身带血腥与杀戮气息的杰森……


获奖情况


  第18届MTV电影奖 (2009)
  MTV电影奖 最佳反派(提名) 德里克·梅耶斯


  第11届美国青少年选择奖 (2009)
  最佳恐怖/惊悚电影




Video
ID                                       : 1
Format                                   : AVC
Format/Info                              : Advanced Video Codec
Format profile                           : High@L4.1
Format settings, CABAC                   : Yes
Format settings, ReFrames                : 4 frames
Codec ID                                 : V_MPEG4/ISO/AVC
Duration                                 : 1h 45mn
Bit rate                                 : 7 140 Kbps
Width                                    : 1 920 pixels
Height                                   : 800 pixels
Display aspect ratio                     : 2.40:1
Frame rate mode                          : Constant
Frame rate                               : 23.976 fps
Color space                              : YUV
Chroma subsampling                       : 4:2:0
Bit depth                                : 8 bits
Scan type                                : Progressive
Bits/(Pixel*Frame)                       : 0.194
Stream size                              : 5.27 GiB (81%)
Writing library                          : x264 core 67 r1173M f6d3166
Encoding settings                        : cabac=1 / ref=4 / deblock=1:-2:-2 / analyse=0x3:0x113 / me=umh / subme=9 / psy_rd=1.0:0.0 / mixed_ref=1 / me_range=24 / chroma_me=1 / trellis=1 / 8x8dct=1 / cqm=0 / deadzone=21,11 / chroma_qp_offset=-2 / threads=6 / nr=0 / decimate=1 / mbaff=0 / bframes=5 / b_pyramid=1 / b_adapt=1 / b_bias=0 / direct=2 / wpredb=1 / keyint=250 / keyint_min=25 / scenecut=40 / rc=crf / crf=21.0 / qcomp=0.70 / qpmin=10 / qpmax=51 / qpstep=4 / vbv_maxrate=50000 / vbv_bufsize=50000 / ip_ratio=1.40 / pb_ratio=1.30 / aq=1:0.80
Language                                 : English
Default                                  : Yes
Forced                                   : No

Audio
ID                                       : 2
Format                                   : DTS
Format/Info                              : Digital Theater Systems
Mode                                     : 16
Format settings, Endianness              : Big
Codec ID                                 : A_DTS
Duration                                 : 1h 45mn
Bit rate mode                            : Constant
Bit rate                                 : 1 510 Kbps
Channel(s)                               : 6 channels
Channel positions                        : Front: L C R, Side: L R, LFE
Sampling rate                            : 48.0 KHz
Bit depth                                : 24 bits
Compression mode                         : Lossy
Stream size                              : 1.11 GiB (17%)
Language                                 : English
Default                                  : Yes
Forced                                   : No

Text
ID                                       : 3
Format                                   : UTF-8
Codec ID                                 : S_TEXT/UTF8
Codec ID/Info                            : UTF-8 Plain Text
Language                                 : English
Default                                  : No
Forced                                   : No






                                                                                                                                                                                                       

                                                                                                                       
                                                                                                                                                                                                                                                        Friday.The.13th.2009.EXTENDED.1080p.BluRay.x264.DTS-FGT.torrent (65.78 KB, 下载次数: 0)

回复

使用道具 举报

小黑屋|百度云资源论坛 |网站地图

本网站所有资源来自网络,如无意中侵犯了您的权益,请发邮件至 aa635343@outlook.com,立即清除相关链接

GMT+8, 2019-11-19 06:14 , Processed in 0.089482 second(s), 23 queries .

Powered by Discuz! X3.2

© 2001-2013 Comsenz Inc.

快速回复 返回顶部 返回列表