百度云资源论坛

 找回密码
 立即注册
搜索

[恐怖片] 杰森在太空/星际公敌/太凶杀人狂 Jason.X.2001.1080p.BluRay.x264.DTS-FGT 7.88GB ... ...

[复制链接]
电影首发 发表于 2015-11-16 08:19:00 | 显示全部楼层 |阅读模式

译  名 杰森在太空/星际公敌/太凶杀人狂/未来杀手
片  名 Jason X
年  代 2001
国  家 美国
类  别 恐怖/科幻
语  言 英语
上映日期 2001-11-09
片  长 91 分钟/Germany: 85 分钟(TV version)
导  演 詹姆斯·艾萨克 James Isaac
主  演 莱克莎·多伊格 Lexa Doig
      Lisa Ryder
      Chuck Campbell
      Jonathan Potts
      彼得·门萨 Peter Mensah


简  介


  2000年,杀不死的杰森被关在水晶湖研究中心,政府为了借杰森研究坏死组织恢复试图将其转移,然而交接时刻杰森再次大开杀戒,危机关头研究员萝文(莱克莎·多伊格 Lexa Doig 饰)把杰森和自己一起封冻。455年后,地球早已不适合人类生存,一支人类科考队返回地球进行考古研究,他们发现了萝文与杰森的尸体,博士卢威(乔纳森·鲍茨 Jonathan Potts 饰)与学生们把尸体带回运输船高刚号,并使用高科技令萝文复活。作为著名杀人狂,杰森尸体的商业价值令卢威心动,岂料杰森在太空船中再次复活并大开杀戒,杰森杀不死的体质结合400年后的科技手段令他的恐怖指数再度上升……




Video
ID                                       : 1
Format                                   : AVC
Format/Info                              : Advanced Video Codec
Format profile                           : High@L4.1
Format settings, CABAC                   : Yes
Format settings, ReFrames                : 4 frames
Codec ID                                 : V_MPEG4/ISO/AVC
Duration                                 : 1h 31mn
Bit rate                                 : 10.5 Mbps
Width                                    : 1 920 pixels
Height                                   : 1 080 pixels
Display aspect ratio                     : 16:9
Frame rate mode                          : Constant
Frame rate                               : 23.976 fps
Color space                              : YUV
Chroma subsampling                       : 4:2:0
Bit depth                                : 8 bits
Scan type                                : Progressive
Bits/(Pixel*Frame)                       : 0.212
Stream size                              : 6.75 GiB (86%)
Language                                 : English
Default                                  : Yes
Forced                                   : No

Audio
ID                                       : 2
Format                                   : DTS
Format/Info                              : Digital Theater Systems
Mode                                     : 16
Format settings, Endianness              : Big
Codec ID                                 : A_DTS
Duration                                 : 1h 31mn
Bit rate mode                            : Constant
Bit rate                                 : 1 509 Kbps
Channel(s)                               : 6 channels
Channel positions                        : Front: L C R, Side: L R, LFE
Sampling rate                            : 48.0 KHz
Bit depth                                : 24 bits
Compression mode                         : Lossy
Stream size                              : 990 MiB (12%)
Language                                 : English
Default                                  : Yes
Forced                                   : No

Text #1
ID                                       : 3
Format                                   : PGS
Muxing mode                              : zlib
Codec ID                                 : S_HDMV/PGS
Codec ID/Info                            : Picture based subtitle format used on BDs/HD-DVDs
Language                                 : English
Default                                  : No
Forced                                   : No

Text #2
ID                                       : 4
Format                                   : PGS
Muxing mode                              : zlib
Codec ID                                 : S_HDMV/PGS
Codec ID/Info                            : Picture based subtitle format used on BDs/HD-DVDs
Language                                 : Spanish
Default                                  : No
Forced                                   : No

Menu
00:00:00.000                             : en:00:00:00.000
00:03:04.810                             : en:00:03:04.810
00:07:10.555                             : en:00:07:10.555
00:09:38.578                             : en:00:09:38.578
00:14:00.840                             : en:00:14:00.840
00:17:34.470                             : en:00:17:34.470
00:23:24.445                             : en:00:23:24.445
00:25:58.807                             : en:00:25:58.807
00:29:56.336                             : en:00:29:56.336
00:31:10.869                             : en:00:31:10.869
00:34:49.296                             : en:00:34:49.296
00:38:52.914                             : en:00:38:52.914
00:41:17.600                             : en:00:41:17.600
00:49:58.662                             : en:00:49:58.662
00:54:05.868                             : en:00:54:05.868
00:58:49.985                             : en:00:58:49.985
01:03:11.997                             : en:01:03:11.997
01:04:47.926                             : en:01:04:47.926
01:08:50.668                             : en:01:08:50.668
01:11:56.687                             : en:01:11:56.687
01:15:13.217                             : en:01:15:13.217
01:18:27.912                             : en:01:18:27.912
01:21:04.068                             : en:01:21:04.068
01:23:46.271                             : en:01:23:46.271
01:26:24.513                             : en:01:26:24.513
01:27:27.325                             : en:01:27:27.325






                                                                                                                                                                                                       

                                                                                                                       
                                                                                                                                                                                                                                                        Jason.X.2001.1080p.BluRay.x264.DTS-FGT.torrent (79.36 KB, 下载次数: 0)

回复

使用道具 举报

小黑屋|百度云资源论坛 |网站地图

本网站所有资源来自网络,如无意中侵犯了您的权益,请发邮件至 aa635343@outlook.com,立即清除相关链接

GMT+8, 2019-11-19 05:24 , Processed in 0.089069 second(s), 23 queries .

Powered by Discuz! X3.2

© 2001-2013 Comsenz Inc.

快速回复 返回顶部 返回列表