百度云资源论坛

 找回密码
 立即注册
搜索

[剧情片] 惊曝内幕/局内人/夺命烟幕/知情者 The.Insider.1999.1080p.BluRay.x264.DTS-FGT 15.88 ...

[复制链接]
电影首发 发表于 2015-11-15 11:52:00 | 显示全部楼层 |阅读模式

译  名 惊曝内幕/局内人/夺命烟幕/知情者/内幕新闻/惊爆内幕
片  名 The Insider
年  代 1999
国  家 美国
类  别 传记/剧情/惊悚
语  言 英语/日语/阿拉伯语
上映日期 1999-11-05
片  长 157 分钟
导  演 迈克尔·曼 Michael Mann
主  演 阿尔·帕西诺 Al Pacino
      罗素·克劳 Russell Crowe
      克里斯托弗·普卢默 Christopher Plummer
      戴安·维诺拉 Diane Venora
      菲利浦·贝克·霍尔 Philip Baker Hall
      林赛·克洛斯 Lindsay Crouse
      黛比·玛扎 Debi Mazar
      斯蒂芬·托布罗斯基 Stephen Tobolowsky
      科鲁姆·费奥瑞 Colm Feore
      布鲁斯·麦克吉尔 Bruce McGill
      吉娜·格申 Gina Gershon
      迈克尔·刚本 Michael Gambon
      雷普·汤恩 Rip Torn
      林恩·瑟格本 Lynne Thigpen
      海莉·凯特·爱森伯格 Hallie Kate Eisenberg


简  介


  劳埃尔-伯格曼(艾尔-帕西诺饰)是CBS电视台“60分钟”节目的王牌制作人,和德高望重的节目主持人迈克-华莱士(克里斯托弗-普拉默饰)向来合作无间。乔佛瑞-维根(罗素-克罗饰)刚被大烟草公司解雇,他的人生似乎瞬间坠入谷底。伯格曼收到一份显示烟草公司制造的香烟对人体有害的报告,找到维根来翻译。然而从这个时候开始,维根便感觉到有人在跟踪监视自己,并给家人带来极大的威胁。烟草公司提醒维根与自己签署的保密协议,他将不能公开任何有关香烟制造的研究给公众。维根不想失去医疗保险等等对家人生活的保障,然而又在备受良心拷问。他最终决定向外界宣布这一切,即使违反保密协议。他先和伯格曼录制了一集“60分钟”栏目,然后前往密西西比州出庭作证控告烟草公司。
  然而,烟草公司比他更快一步申请了言论禁制令,他妻子带着两名女儿离去,“60分”栏目又遭到CBS禁播。这一切巨大的代价让人压不过气。维根和伯格曼成了单打独斗的勇士,他们面对内心的正义、勇敢,并一直坚持。


获奖情况


  第72届奥斯卡金像奖 (2000)
  最佳影片(提名) 迈克尔·曼 / 皮特·扬·布拉戈
  最佳导演(提名) 迈克尔·曼
  最佳男主角(提名) 罗素·克劳
  最佳改编剧本(提名) 艾瑞克·罗斯 / 迈克尔·曼
  最佳摄影(提名) 但丁·斯宾诺蒂
  最佳剪辑(提名) Paul Rubell / 威廉·戈登伯格 / David Rosenbloom
  最佳音响(提名) 李·奥尔洛夫 / 道格·亨普希尔 / 安迪·尼尔森




Video
ID                                       : 1
Format                                   : AVC
Format/Info                              : Advanced Video Codec
Format profile                           : [email protected]
Format settings, CABAC                   : Yes
Format settings, ReFrames                : 5 frames
Codec ID                                 : V_MPEG4/ISO/AVC
Duration                                 : 2h 37mn
Bit rate                                 : 12.9 Mbps
Width                                    : 1 920 pixels
Height                                   : 804 pixels
Display aspect ratio                     : 2.40:1
Frame rate mode                          : Constant
Frame rate                               : 23.976 fps
Color space                              : YUV
Chroma subsampling                       : 4:2:0
Bit depth                                : 8 bits
Scan type                                : Progressive
Bits/(Pixel*Frame)                       : 0.349
Stream size                              : 13.9 GiB (88%)
Writing library                          : x264 core 130 r2273 b3065e6
Encoding settings                        : cabac=1 / ref=5 / deblock=1:-3:-3 / analyse=0x3:0x113 / me=umh / subme=11 / psy=1 / psy_rd=0.95:0.15 / mixed_ref=1 / me_range=32 / chroma_me=1 / trellis=2 / 8x8dct=1 / cqm=0 / deadzone=21,11 / fast_pskip=0 / chroma_qp_offset=-5 / threads=12 / lookahead_threads=3 / sliced_threads=0 / nr=0 / decimate=0 / interlaced=0 / bluray_compat=0 / constrained_intra=0 / bframes=10 / b_pyramid=2 / b_adapt=2 / b_bias=0 / direct=3 / weightb=1 / open_gop=0 / weightp=2 / keyint=250 / keyint_min=23 / scenecut=40 / intra_refresh=0 / rc_lookahead=95 / rc=2pass / mbtree=1 / bitrate=12900 / ratetol=1.0 / qcomp=0.60 / qpmin=0 / qpmax=69 / qpstep=4 / cplxblur=20.0 / qblur=0.5 / ip_ratio=1.40 / aq=1:0.85
Language                                 : English
Default                                  : Yes
Forced                                   : No

Audio
ID                                       : 2
Format                                   : DTS
Format/Info                              : Digital Theater Systems
Mode                                     : 16
Format settings, Endianness              : Big
Codec ID                                 : A_DTS
Duration                                 : 2h 37mn
Bit rate mode                            : Constant
Bit rate                                 : 1 509 Kbps
Channel(s)                               : 6 channels
Channel positions                        : Front: L C R, Side: L R, LFE
Sampling rate                            : 48.0 KHz
Bit depth                                : 24 bits
Compression mode                         : Lossy
Stream size                              : 1.66 GiB (10%)
Language                                 : English
Default                                  : Yes
Forced                                   : No






                                                                                                                                                                                                       

                                                                                                                       
                                                                                                                                                                                                                                                        The.Insider.1999.1080p.BluRay.x264.DTS-FGT.torrent (80.02 KB, 下载次数: 0)

回复

使用道具 举报

小黑屋|百度云资源论坛 |网站地图

本网站所有资源来自网络,如无意中侵犯了您的权益,请发邮件至 [email protected],立即清除相关链接

GMT+8, 2020-11-30 19:14 , Processed in 0.120508 second(s), 23 queries .

Powered by Discuz! X3.2

© 2001-2013 Comsenz Inc.

快速回复 返回顶部 返回列表