百度云资源论坛

 找回密码
 立即注册
搜索

我要复仇/复仇者的怜悯 Sympathy.For.Mr.Vengeance.2002.1080p.BluRay.x264-CiNEFiLE ...

[复制链接]
电影首发 发表于 2015-11-15 11:46:00 | 显示全部楼层 |阅读模式

译  名 我要复仇/复仇者的怜悯/复仇
片  名 복수는 나의 것
年  代 2002
国  家 韩国
类  别 犯罪/剧情/惊悚
语  言 韩国手语/韩语
上映日期 2002-03-29
片  长 129 分钟/Japan: 117 分钟/UK: 121 分钟
导  演 朴赞郁
主  演 宋康昊
      申河均
      裴斗娜
      韩宝贝
      林志恩


简  介


  Ryu(申河均饰)是名聋哑青年,自父母去世一直和姐姐相依为命。在特殊学校里,他遇上了装作失聪的女友(裴斗娜饰),二人感情发展不错。可是姐姐却患上了绝症,需要移植肾脏以维持生命。
  他本想通过黑市以自己肾脏换取适合姐姐移植用的肾脏,却遭诈骗,损失自己肾脏外,还被骗去所有的钱。当有合适姐姐的肾脏时,他却没有医药费。女友提议他去绑架有钱人的小孩再索取赎金,并说这种绑架不算是罪过。
  他们看上了工厂老板东劲(宋康昊饰)的女儿,对离了婚的东劲而言,生命中最重要的就是女儿。遭绑架后,他并没有报警而是准备赎金以求换回女儿,但故事并没有朝好的方向走去……




Video
ID                                       : 1
Format                                   : AVC
Format/Info                              : Advanced Video Codec
Format profile                           : [email protected]
Format settings, CABAC                   : Yes
Format settings, ReFrames                : 5 frames
Codec ID                                 : V_MPEG4/ISO/AVC
Duration                                 : 2h 1mn
Bit rate                                 : 8 835 Kbps
Width                                    : 1 920 pixels
Height                                   : 824 pixels
Display aspect ratio                     : 2.35:1
Frame rate mode                          : Constant
Frame rate                               : 23.976 fps
Color space                              : YUV
Chroma subsampling                       : 4:2:0
Bit depth                                : 8 bits
Scan type                                : Progressive
Bits/(Pixel*Frame)                       : 0.233
Stream size                              : 7.30 GiB (83%)
Writing library                          : x264 core 79 r1342 e8501ef
Encoding settings                        : cabac=1 / ref=5 / deblock=1:0:0 / analyse=0x3:0x133 / me=umh / subme=7 / psy=1 / psy_rd=1.0:0.0 / mixed_ref=1 / me_range=16 / chroma_me=1 / trellis=1 / 8x8dct=1 / cqm=0 / deadzone=21,11 / chroma_qp_offset=-2 / threads=6 / nr=0 / decimate=1 / mbaff=0 / constrained_intra=0 / bframes=3 / b_pyramid=0 / b_adapt=1 / b_bias=0 / direct=1 / wpredb=1 / wpredp=2 / keyint=250 / keyint_min=25 / scenecut=40 / rc_lookahead=40 / rc=2pass / mbtree=1 / bitrate=8835 / ratetol=1.0 / qcomp=0.60 / qpmin=10 / qpmax=51 / qpstep=4 / cplxblur=20.0 / qblur=0.5 / ip_ratio=1.40 / aq=1:1.00
Language                                 : English
Default                                  : Yes
Forced                                   : No

Audio
ID                                       : 2
Format                                   : DTS
Format/Info                              : Digital Theater Systems
Mode                                     : 16
Format settings, Endianness              : Big
Codec ID                                 : A_DTS
Duration                                 : 2h 1mn
Bit rate mode                            : Constant
Bit rate                                 : 1 509 Kbps
Channel(s)                               : 6 channels
Channel positions                        : Front: L C R, Side: L R, LFE
Sampling rate                            : 48.0 KHz
Bit depth                                : 24 bits
Compression mode                         : Lossy
Stream size                              : 1.28 GiB (15%)
Language                                 : Korean
Default                                  : Yes
Forced                                   : No

Text
ID                                       : 3
Format                                   : UTF-8
Codec ID                                 : S_TEXT/UTF8
Codec ID/Info                            : UTF-8 Plain Text
Language                                 : English
Default                                  : Yes
Forced                                   : No






                                                                                                                                                                                                       

                                                                                                                       
                                                                                                                                                                                                                                                        Sympathy.For.Mr.Vengeance.2002.1080p.BluRay.x264-CiNEFiLE.torrent (88.11 KB, 下载次数: 0)

回复

使用道具 举报

小黑屋|百度云资源论坛 |网站地图

本网站所有资源来自网络,如无意中侵犯了您的权益,请发邮件至 [email protected],立即清除相关链接

GMT+8, 2020-11-30 18:30 , Processed in 0.122476 second(s), 23 queries .

Powered by Discuz! X3.2

© 2001-2013 Comsenz Inc.

快速回复 返回顶部 返回列表