百度云资源论坛

 找回密码
 立即注册
搜索

[冒险片] 淘金记 The.Gold.Rush.1925.1080p.BluRay.x264-THUGLiNE 6.56GB

[复制链接]
电影首发 发表于 2015-11-15 11:46:00 | 显示全部楼层 |阅读模式

译  名 淘金记
片  名 The Gold Rush
年  代 1925
国  家 美国
类  别 冒险/喜剧/家庭/爱情/西部
语  言 英语
上映日期 1925-06-26
片  长 95 分钟(24 fps) (original version: Los Angeles, California, 1925)/USA: 72 分钟(1942 re-release)/USA: 81 分钟(24 fps) (edited version: New York release, 1925)
导  演 查理·卓别林 Charles Chaplin
主  演 查理·卓别林 Charles Chaplin
      马克·斯旺 Mack Swain
      乔治亚·黑尔 Georgia Hale


简  介


  流浪汉查理(查理·卓别林 Charlie Chaplin 饰)随队伍来到阿拉斯加淘金。他在一间小木屋里碰见了通缉犯拉逊,接着淘金人吉姆也闯进来,并抢走了拉逊的枪。拉逊出去找食物时发现了吉姆正在开发的金矿,于是他没回木屋。小木屋里,饥肠辘辘的查理煮了皮鞋充饥,饿的神智恍惚的吉姆却把查理想象成火鸡追杀。突然,一头熊撞进来,两人一起把熊打死,饱餐之后分道扬镳。吉姆发现了拉逊占了自己的金矿坑,拉逊将他打昏,不料却在逃跑时掉下深谷。
  查理在小镇邂逅舞女乔治亚(乔治亚·黑尔 Georgia Hale 饰),帮她摆脱暴发户的骚扰。第二次又巧遇她时,查理邀她除夕共餐,但是乔治亚爽约了,失落的查理只能在幻梦中为她表演舞蹈。被打成失忆的吉姆在镇上重遇查理,他请查理帮他一起找金矿。两人回到小木屋,却被大风雪吹落下了万丈深渊。醒来时他们惊喜地发现金矿正在身边。查理与吉姆淘金成功,在回乡的船上遇见困顿的乔治亚。在新闻记者的镜头前,查理与乔治亚亲密拥抱。


获奖情况


  第15届奥斯卡金像奖 (1943)
  最佳录音(提名) James L. Fields
  剧情/喜剧片最佳配乐(提名) Max Terr




Video
ID                                       : 1
Format                                   : AVC
Format/Info                              : Advanced Video Codec
Format profile                           : [email protected]
Format settings, CABAC                   : Yes
Format settings, ReFrames                : 4 frames
Codec ID                                 : V_MPEG4/ISO/AVC
Duration                                 : 1h 11mn
Bit rate                                 : 11.6 Mbps
Width                                    : 1 440 pixels
Height                                   : 1 080 pixels
Display aspect ratio                     : 4:3
Frame rate mode                          : Constant
Frame rate                               : 23.976 fps
Color space                              : YUV
Chroma subsampling                       : 4:2:0
Bit depth                                : 8 bits
Scan type                                : Progressive
Bits/(Pixel*Frame)                       : 0.310
Stream size                              : 5.67 GiB (86%)
Writing library                          : x264 core 95 r1592 95aacc4
Encoding settings                        : cabac=1 / ref=4 / deblock=1:0:0 / analyse=0x3:0x133 / me=umh / subme=7 / psy=1 / psy_rd=1.00:0.00 / mixed_ref=1 / me_range=16 / chroma_me=1 / trellis=1 / 8x8dct=1 / cqm=0 / deadzone=21,11 / fast_pskip=0 / chroma_qp_offset=-2 / threads=12 / sliced_threads=0 / nr=0 / decimate=1 / interlaced=0 / constrained_intra=0 / bframes=3 / b_pyramid=2 / b_adapt=1 / b_bias=0 / direct=1 / weightb=1 / weightp=2 / keyint=250 / keyint_min=25 / scenecut=40 / intra_refresh=0 / rc_lookahead=40 / rc=2pass / mbtree=1 / bitrate=11571 / ratetol=1.0 / qcomp=0.60 / qpmin=10 / qpmax=51 / qpstep=4 / cplxblur=20.0 / qblur=0.5 / ip_ratio=1.40 / aq=1:1.00
Language                                 : English
Default                                  : No
Forced                                   : No

Audio
ID                                       : 2
Format                                   : DTS
Format/Info                              : Digital Theater Systems
Mode                                     : 16
Format settings, Endianness              : Big
Codec ID                                 : A_DTS
Duration                                 : 1h 11mn
Bit rate mode                            : Constant
Bit rate                                 : 1 509 Kbps
Channel(s)                               : 2 channels
Channel positions                        : Front: L R
Sampling rate                            : 48.0 KHz
Bit depth                                : 16 bits
Compression mode                         : Lossy
Stream size                              : 775 MiB (12%)
Language                                 : English
Default                                  : Yes
Forced                                   : No





                                                                                                                                                                                                       

                                                                                                                       
                                                                                                                                                                                                                                                        The.Gold.Rush.1925.1080p.BluRay.x264-THUGLiNE.torrent (66.13 KB, 下载次数: 0)

回复

使用道具 举报

小黑屋|百度云资源论坛 |网站地图

本网站所有资源来自网络,如无意中侵犯了您的权益,请发邮件至 [email protected],立即清除相关链接

GMT+8, 2020-4-4 20:30 , Processed in 0.132208 second(s), 23 queries .

Powered by Discuz! X3.2

© 2001-2013 Comsenz Inc.

快速回复 返回顶部 返回列表