百度云资源论坛

 找回密码
 立即注册
搜索

[惊悚片] 擒凶记 The.Man.Who.Knew.Too.Much.1956.1080p.BluRay.X264-AMIABLE 8.75GB

[复制链接]
电影首发 发表于 2015-11-15 11:46:00 | 显示全部楼层 |阅读模式

译  名 擒凶记/知道太多事情的人/知情太多的人
片  名 The Man Who Knew Too Much
年  代 1956
国  家 美国
类  别 惊悚
语  言 英语/法语/阿拉伯语
上映日期 1956-06-01
片  长 120 分钟
导  演 阿尔弗雷德·希区柯克 Alfred Hitchcock
主  演 詹姆斯·斯图尔特 James Stewart
      多丽丝·黛 Doris Day
      克里斯托弗·奥尔森 Christopher Olsen
      丹尼尔·盖林 Daniel Gélin
      伯纳德·迈尔斯 Bernard Miles
      布伦达·德·班泽 Brenda De Banzie


简  介


  本(詹姆斯·斯图尔特 James Stewart 饰)和乔(桃丽丝·戴 Doris Day 饰)是一对感情十分要好的夫妻,带着儿子汉克(Christopher Olsen 饰),一家三口来到了风景如画的摩洛哥度假。一次偶然中,本和乔结识了名叫路易斯(丹尼尔·盖林 Daniel Gélin 饰)的男人,他们在一起相处十分融洽。
  不幸的事情发生了,路易斯被凶手刺杀身亡,临死前,他透露了一个神秘的名字——“安伯斯·查培”,并且告诉本和乔,有人正在伦敦执行一项秘密的暗杀行动,在得知了这个惊天秘密后,本和乔来到了伦敦。暗杀者自知行动泄露,为了取得最后的成功,他们不择手段绑架了汉克,可即便如此,也没能动摇本和乔声张正义的决心。


获奖情况


  第29届奥斯卡金像奖 (1957)
  最佳原创歌曲 Jay Livingston / Ray Evans


  第9届戛纳电影节 (1956)
  主竞赛单元 金棕榈奖(提名) 阿尔弗雷德·希区柯克




Video
ID                                       : 1
Format                                   : AVC
Format/Info                              : Advanced Video Codec
Format profile                           : [email protected]
Format settings, CABAC                   : Yes
Format settings, ReFrames                : 4 frames
Codec ID                                 : V_MPEG4/ISO/AVC
Duration                                 : 2h 0mn
Bit rate                                 : 8 898 Kbps
Width                                    : 1 920 pixels
Height                                   : 1 040 pixels
Display aspect ratio                     : 1.85:1
Frame rate mode                          : Constant
Frame rate                               : 23.976 fps
Color space                              : YUV
Chroma subsampling                       : 4:2:0
Bit depth                                : 8 bits
Scan type                                : Progressive
Bits/(Pixel*Frame)                       : 0.186
Stream size                              : 7.30 GiB (84%)
Writing library                          : x264 core 128 r2216 198a7ea
Encoding settings                        : cabac=1 / ref=4 / deblock=1:0:0 / analyse=0x3:0x113 / me=umh / subme=8 / psy=1 / psy_rd=1.00:0.00 / mixed_ref=1 / me_range=16 / chroma_me=1 / trellis=1 / 8x8dct=1 / cqm=0 / deadzone=21,11 / fast_pskip=1 / chroma_qp_offset=-2 / threads=12 / lookahead_threads=2 / sliced_threads=0 / nr=0 / decimate=1 / interlaced=0 / bluray_compat=0 / constrained_intra=0 / bframes=3 / b_pyramid=2 / b_adapt=2 / b_bias=0 / direct=3 / weightb=1 / open_gop=0 / weightp=2 / keyint=240 / keyint_min=24 / scenecut=40 / intra_refresh=0 / rc_lookahead=50 / rc=2pass / mbtree=1 / bitrate=8898 / ratetol=1.0 / qcomp=0.60 / qpmin=0 / qpmax=69 / qpstep=4 / cplxblur=20.0 / qblur=0.5 / ip_ratio=1.40 / aq=1:1.00
Language                                 : English
Default                                  : Yes
Forced                                   : No

Audio
ID                                       : 2
Format                                   : DTS
Format/Info                              : Digital Theater Systems
Mode                                     : 16
Format settings, Endianness              : Big
Codec ID                                 : A_DTS
Duration                                 : 2h 0mn
Bit rate mode                            : Constant
Bit rate                                 : 1 509 Kbps
Channel(s)                               : 6 channels
Channel(s)_Original                      : 2 channels
Channel positions                        : Front: L R
Sampling rate                            : 48.0 KHz
Bit depth                                : 24 bits
Compression mode                         : Lossy
Stream size                              : 1.27 GiB (14%)
Language                                 : English
Default                                  : Yes
Forced                                   : No

Text
ID                                       : 3
Format                                   : UTF-8
Codec ID                                 : S_TEXT/UTF8
Codec ID/Info                            : UTF-8 Plain Text
Language                                 : English
Default                                  : No
Forced                                   : No

Menu
00:00:00.000                             : en:00:00:00.000
00:02:49.503                             : en:00:02:49.503
00:12:15.026                             : en:00:12:15.026
00:17:21.332                             : en:00:17:21.332
00:25:09.967                             : en:00:25:09.967
00:32:55.098                             : en:00:32:55.098
00:42:39.098                             : en:00:42:39.098
00:49:23.961                             : en:00:49:23.961
01:00:10.565                             : en:01:00:10.565
01:06:56.304                             : en:01:06:56.304
01:10:10.206                             : en:01:10:10.206
01:15:29.108                             : en:01:15:29.108
01:24:08.919                             : en:01:24:08.919
01:29:18.103                             : en:01:29:18.103
01:37:38.853                             : en:01:37:38.853
01:43:37.878                             : en:01:43:37.878
01:49:45.871                             : en:01:49:45.871
01:56:40.160                             : en:01:56:40.160





                                                                                                                                                                                                       

                                                                                                                       
                                                                                                                                                                                                                                                        The.Man.Who.Knew.Too.Much.1956.1080p.BluRay.X264-AMIABLE.torrent (88.1 KB, 下载次数: 0)

回复

使用道具 举报

小黑屋|百度云资源论坛 |网站地图

本网站所有资源来自网络,如无意中侵犯了您的权益,请发邮件至 [email protected],立即清除相关链接

GMT+8, 2020-9-23 04:22 , Processed in 1.237553 second(s), 95 queries .

Powered by Discuz! X3.2

© 2001-2013 Comsenz Inc.

快速回复 返回顶部 返回列表