百度云资源论坛

 找回密码
 立即注册
搜索

蝎子王2:勇士的崛起 The.Scorpion.King.2.2007.STV.1080p.BluRay.DTS.x264-hV 9.14GB ...

[复制链接]
电影首发 发表于 2015-11-15 11:46:00 | 显示全部楼层 |阅读模式

译  名 蝎子王2:勇士的崛起
片  名 The Scorpion King: Rise of a Warrior
年  代 2008
国  家 美国/南非/德国
类  别 动作/奇幻/冒险
语  言 英语
上映日期 2008-08-19
片  长 109分钟
导  演 拉塞尔·穆卡希 Russell Mulcahy
主  演 迈克尔·科彭 Michael Copon
      凯伦·戴维 Karen David
      Simon Quarterman
      Tom Wu
      安德雷斯·魏斯涅夫斯基 Andreas Wisniewski
      兰迪·库卓 Randy Couture
      娜塔莉·贝克尔 Natalie Becker
      Jeremy Crutchley
      Shane Manie
      Peter Butler
      Chase Agulhas
      Pierre Marais
      Warrick Grier
      泰瑞·诺顿 Terry Norton
      Az Abrahams


简  介


  在两河流域的古国阿卡德,黑蝎子战士是最菁英的国王御前武士。阿沙是黑蝎子中的佼佼者,阿沙为了维护13岁的儿子玛沙亚斯(Michael Copon 饰),开罪了将军萨贡。掌握黑暗魔力的萨贡驱使毒蝎将阿沙杀害。玛沙亚斯怀着为父报仇的决心加入了黑蝎子行列。六年后,成为黑蝎子佼佼者的玛沙亚斯荣归故里,等待着他的却是仇人萨贡取代老王成为国主。萨贡为考验玛沙亚斯的忠诚,令其杀死亲弟,玛沙亚斯奋起反抗,终不敌萨贡的魔力,逃出阿卡德。
  玛沙亚斯幼年好友莱拉(Karen Shenaz David 饰)追随他上路,二人远赴埃及,寻找能破解萨贡的神之武器,他们要面对的,是吃人的怪兽米诺陶和非人力所能探晓的冥界……


Video
ID                                       : 1
Format                                   : AVC
Format/Info                              : Advanced Video Codec
Format profile                           : [email protected]
Format settings, CABAC                   : Yes
Format settings, ReFrames                : 4 frames
Codec ID                                 : V_MPEG4/ISO/AVC
Duration                                 : 1h 48mn
Bit rate                                 : 10.5 Mbps
Width                                    : 1 920 pixels
Height                                   : 1 080 pixels
Display aspect ratio                     : 16:9
Frame rate mode                          : Constant
Frame rate                               : 23.976 fps
Color space                              : YUV
Chroma subsampling                       : 4:2:0
Bit depth                                : 8 bits
Scan type                                : Progressive
Bits/(Pixel*Frame)                       : 0.211
Stream size                              : 7.81 GiB (85%)
Writing library                          : x264 core 60 r928M 4816918
Encoding settings                        : cabac=1 / ref=4 / deblock=1:-2:-2 / analyse=0x3:0x113 / me=umh / subme=6 / psy_rd=1.000000 / brdo=1 / mixed_ref=1 / me_range=16 / chroma_me=1 / trellis=0 / 8x8dct=1 / cqm=2 / deadzone=21,11 / chroma_qp_offset=0 / threads=6 / nr=0 / decimate=1 / mbaff=0 / bframes=5 / b_pyramid=1 / b_adapt=1 / b_bias=0 / direct=3 / wpredb=1 / bime=1 / keyint=250 / keyint_min=25 / scenecut=40(pre) / rc=2pass / bitrate=10500 / ratetol=1.0 / rceq=\'blurCplx^(1-qComp)\' / qcomp=1.00 / qpmin=10 / qpmax=51 / qpstep=4 / cplxblur=20.0 / qblur=0.5 / ip_ratio=1.40 / pb_ratio=1.30 / aq=2:1.00
Language                                 : English
Default                                  : Yes
Forced                                   : No

Audio
ID                                       : 2
Format                                   : DTS
Format/Info                              : Digital Theater Systems
Mode                                     : 16
Format settings, Endianness              : Big
Codec ID                                 : A_DTS
Duration                                 : 1h 48mn
Bit rate mode                            : Constant
Bit rate                                 : 1 509 Kbps
Channel(s)                               : 6 channels
Channel positions                        : Front: L C R, Side: L R, LFE
Sampling rate                            : 48.0 KHz
Bit depth                                : 24 bits
Compression mode                         : Lossy
Stream size                              : 1.15 GiB (13%)
Language                                 : English
Default                                  : Yes
Forced                                   : No





                                                                                                                                                                                                       

                                                                                                                       
                                                                                                                                                                                                                                                        The.Scorpion.King.2.2007.STV.1080p.BluRay.DTS.x264-hV.torrent (91.98 KB, 下载次数: 0)

回复

使用道具 举报

小黑屋|百度云资源论坛 |网站地图

本网站所有资源来自网络,如无意中侵犯了您的权益,请发邮件至 [email protected],立即清除相关链接

GMT+8, 2020-11-30 18:02 , Processed in 2.886111 second(s), 23 queries .

Powered by Discuz! X3.2

© 2001-2013 Comsenz Inc.

快速回复 返回顶部 返回列表