百度云资源论坛

 找回密码
 立即注册
搜索

[犯罪片] 捉贼记 To.Catch.A.Thief.1955.1080p.BluRay.x264-HD4U 6.56GB

[复制链接]
电影首发 发表于 2015-11-15 11:46:00 | 显示全部楼层 |阅读模式

译  名 捉贼记
片  名 To Catch a Thief
年  代 1955
国  家 美国
类  别 犯罪/悬疑/爱情/惊悚
语  言 英语/法语
上映日期 1955-08-03
片  长 106 分钟
导  演 阿尔弗雷德·希区柯克 Alfred Hitchcock
主  演 加里·格兰特 Cary Grant
      格蕾丝·凯利 Grace Kelly
      洁茜·罗伊丝·兰迪斯 Jessie Royce Landis
      布丽吉特·奥贝尔 Brigitte Auber


简  介


  最近城里的屡屡发生珠宝劫案,警察们都束手无策。因为贼人的手法和以前闻名的大盗“黑猫”约翰(加里•格兰特 Cary Grant 饰)如出一辙,警察们找上了正在乡间别墅过着悠闲生活的约翰。约翰当然不会轻易就范,他摆脱了警察之后,开始调查到底是谁用他的手法屡屡作案。毫无头绪的约翰找到了以前的战友巴先生,却被巴先生餐馆里的人视作不速之客。幸好在侍者孚的女儿的帮助下,约翰来到了嘎纳海滩。在保险公司经理的帮助下,约翰展开了他的抓贼行动。


获奖情况


  第28届奥斯卡金像奖 (1956)
  彩色片最佳摄影 Robert Burks
  彩色片最佳艺术指导和布景(提名) J. McMillan Johnson / Arthur Krams / 萨姆·库默 / 哈尔·佩雷拉
  彩色片最佳服装设计(提名) 伊迪丝·海德




Video
ID                                       : 1
Format                                   : AVC
Format/Info                              : Advanced Video Codec
Format profile                           : [email protected]
Format settings, CABAC                   : Yes
Format settings, ReFrames                : 4 frames
Muxing mode                              : Header stripping
Codec ID                                 : V_MPEG4/ISO/AVC
Duration                                 : 1h 46mn
Bit rate                                 : 8 173 Kbps
Width                                    : 1 920 pixels
Height                                   : 1 080 pixels
Display aspect ratio                     : 16:9
Frame rate mode                          : Constant
Frame rate                               : 23.976 fps
Color space                              : YUV
Chroma subsampling                       : 4:2:0
Bit depth                                : 8 bits
Scan type                                : Progressive
Bits/(Pixel*Frame)                       : 0.164
Stream size                              : 5.95 GiB (91%)
Writing library                          : x264 core 120 r2164 da19765
Encoding settings                        : cabac=1 / ref=4 / deblock=1:0:0 / analyse=0x3:0x133 / me=umh / subme=7 / psy=1 / psy_rd=1.00:0.00 / mixed_ref=1 / me_range=16 / chroma_me=1 / trellis=1 / 8x8dct=1 / cqm=0 / deadzone=21,11 / fast_pskip=0 / chroma_qp_offset=-2 / threads=12 / sliced_threads=0 / nr=0 / decimate=1 / interlaced=0 / bluray_compat=0 / constrained_intra=0 / bframes=3 / b_pyramid=2 / b_adapt=2 / b_bias=0 / direct=3 / weightb=1 / open_gop=0 / weightp=2 / keyint=250 / keyint_min=23 / scenecut=40 / intra_refresh=0 / rc_lookahead=50 / rc=2pass / mbtree=1 / bitrate=8173 / ratetol=1.0 / qcomp=0.60 / qpmin=0 / qpmax=69 / qpstep=4 / cplxblur=20.0 / qblur=0.5 / ip_ratio=1.40 / aq=1:1.00
Language                                 : English
Default                                  : Yes
Forced                                   : No

Audio
ID                                       : 2
Format                                   : AC-3
Format/Info                              : Audio Coding 3
Mode extension                           : CM (complete main)
Format settings, Endianness              : Big
Muxing mode                              : Header stripping
Codec ID                                 : A_AC3
Duration                                 : 1h 46mn
Bit rate mode                            : Constant
Bit rate                                 : 640 Kbps
Channel(s)                               : 2 channels
Channel positions                        : Front: L R
Sampling rate                            : 48.0 KHz
Compression mode                         : Lossy
Stream size                              : 488 MiB (7%)
Language                                 : English
Default                                  : Yes
Forced                                   : No

Text #1
ID                                       : 3
Format                                   : UTF-8
Codec ID                                 : S_TEXT/UTF8
Codec ID/Info                            : UTF-8 Plain Text
Language                                 : English
Default                                  : No
Forced                                   : No

Text #2
ID                                       : 4
Format                                   : UTF-8
Codec ID                                 : S_TEXT/UTF8
Codec ID/Info                            : UTF-8 Plain Text
Language                                 : English
Default                                  : No
Forced                                   : No





                                                                                                                                                                                                       

                                                                                                                       
                                                                                                                                                                                                                                                        To.Catch.A.Thief.1955.1080p.BluRay.x264-HD4U.torrent (66.17 KB, 下载次数: 0)

回复

使用道具 举报

小黑屋|百度云资源论坛 |网站地图

本网站所有资源来自网络,如无意中侵犯了您的权益,请发邮件至 [email protected],立即清除相关链接

GMT+8, 2020-11-24 00:36 , Processed in 0.117006 second(s), 23 queries .

Powered by Discuz! X3.2

© 2001-2013 Comsenz Inc.

快速回复 返回顶部 返回列表