百度云资源论坛

 找回密码
 立即注册
搜索

[动作片] 蝎子王3:救赎之战 The.Scorpion.King.3.2012.1080p.BluRay.x264-HD4U 7.65GB

[复制链接]
电影首发 发表于 2015-11-15 11:46:00 | 显示全部楼层 |阅读模式

译  名 蝎子王3:救赎之战/蝎子王3:死者的崛起
片  名 The Scorpion King 3: Battle for Redemption
年  代 2012
国  家 泰国
类  别 动作/奇幻/惊悚
语  言 英语
上映日期 2012-01-17
片  长 104分钟
导  演 Roel Reiné
主  演 维克多·韦伯斯特 Victor Webster
      朗·普尔曼 Ron Perlman
      比利·赞恩 Billy Zane
      Bostin Christopher
      Dave Bautista
      凯文·费格斯 Kevin 'Kimbo Slice' Ferguson
      Johann Helf
      Selina Lo
      克里斯塔尔·维 Krystal Vee
      Geoffrey Giuliano


简  介


  本片是《蝎子王2:勇士的崛起》的续集。环球投资,泰国制造的电视影,DVD已于2011年发行上市。
  影片一开始,莫萨尤斯失去了他心爱的皇后并且被前国王驱赶。现在莫萨尤斯受到了埃及国王荷鲁斯的雇佣保护盟友不受敌人的攻击,而作为回报,国王将会把女儿和拥有神力的徽章赐予莫萨尤斯。莫萨尤斯接受了这危险的任务,并且将要面对危险的敌人。
  




Video
ID                                       : 1
Format                                   : AVC
Format/Info                              : Advanced Video Codec
Format profile                           : [email protected]
Format settings, CABAC                   : Yes
Format settings, ReFrames                : 4 frames
Muxing mode                              : Header stripping
Codec ID                                 : V_MPEG4/ISO/AVC
Duration                                 : 1h 45mn
Bit rate                                 : 8 898 Kbps
Width                                    : 1 920 pixels
Height                                   : 1 080 pixels
Display aspect ratio                     : 16:9
Frame rate mode                          : Constant
Frame rate                               : 23.976 fps
Color space                              : YUV
Chroma subsampling                       : 4:2:0
Bit depth                                : 8 bits
Scan type                                : Progressive
Bits/(Pixel*Frame)                       : 0.179
Stream size                              : 6.38 GiB (84%)
Writing library                          : x264 core 120 r2120 0c7dab9
Encoding settings                        : cabac=1 / ref=4 / deblock=1:0:0 / analyse=0x3:0x133 / me=umh / subme=7 / psy=1 / psy_rd=1.00:0.00 / mixed_ref=1 / me_range=16 / chroma_me=1 / trellis=1 / 8x8dct=1 / cqm=0 / deadzone=21,11 / fast_pskip=0 / chroma_qp_offset=-2 / threads=12 / sliced_threads=0 / nr=0 / decimate=1 / interlaced=0 / bluray_compat=0 / constrained_intra=0 / bframes=3 / b_pyramid=2 / b_adapt=1 / b_bias=0 / direct=1 / weightb=1 / open_gop=0 / weightp=2 / keyint=250 / keyint_min=23 / scenecut=40 / intra_refresh=0 / rc_lookahead=40 / rc=2pass / mbtree=1 / bitrate=8898 / ratetol=1.0 / qcomp=0.60 / qpmin=0 / qpmax=69 / qpstep=4 / cplxblur=20.0 / qblur=0.5 / ip_ratio=1.40 / aq=1:1.00
Language                                 : English
Default                                  : Yes
Forced                                   : No

Audio
ID                                       : 2
Format                                   : DTS
Format/Info                              : Digital Theater Systems
Mode                                     : 16
Format settings, Endianness              : Big
Muxing mode                              : Header stripping
Codec ID                                 : A_DTS
Duration                                 : 1h 45mn
Bit rate mode                            : Constant
Bit rate                                 : 1 509 Kbps
Channel(s)                               : 6 channels
Channel positions                        : Front: L C R, Side: L R, LFE
Sampling rate                            : 48.0 KHz
Bit depth                                : 24 bits
Compression mode                         : Lossy
Stream size                              : 1.11 GiB (15%)
Language                                 : English
Default                                  : Yes
Forced                                   : No

Text
ID                                       : 3
Format                                   : UTF-8
Codec ID                                 : S_TEXT/UTF8
Codec ID/Info                            : UTF-8 Plain Text
Language                                 : English
Default                                  : No
Forced                                   : No





                                                                                                                                                                                                       

                                                                                                                       
                                                                                                                                                                                                                                                        The.Scorpion.King.3.Battle.For.Redemption.2012.1080p.BluRay.x264-HD4U.torrent (77.04 KB, 下载次数: 0)

回复

使用道具 举报

小黑屋|百度云资源论坛 |网站地图

本网站所有资源来自网络,如无意中侵犯了您的权益,请发邮件至 [email protected],立即清除相关链接

GMT+8, 2020-7-14 13:52 , Processed in 0.122286 second(s), 23 queries .

Powered by Discuz! X3.2

© 2001-2013 Comsenz Inc.

快速回复 返回顶部 返回列表