百度云资源论坛

 找回密码
 立即注册
搜索

[爱情片] 迷魂记/眩晕 Vertigo.1958.1080p.BluRay.X264-AMIABLE 9.84GB

[复制链接]
电影首发 发表于 2015-11-15 11:46:00 | 显示全部楼层 |阅读模式

译  名 迷魂记/眩晕
片  名 Vertigo
年  代 1958
国  家 美国
类  别 爱情/悬疑/惊悚
语  言 英语
上映日期 1958-05-09
片  长 128 分钟
导  演 阿尔弗雷德·希区柯克 Alfred Hitchcock
主  演 詹姆斯·斯图尔特 James Stewart
      金·诺瓦克 Kim Novak
      芭芭拉·贝尔·戈迪斯 Barbara Bel Geddes
      汤姆·赫尔莫 Tom Helmore


简  介


  警官斯考蒂(詹姆斯•斯图尔特 James Stewart 饰)在一次行动中从高处失足掉下,虽然最终身体完全复原,但是却患上了恐高症。斯考蒂只好辞职当起了私家侦探。一天,同学加文找到斯考蒂,委托他去跟踪妻子玛伦(金•诺瓦克 Kim Novak 饰),因为玛伦似乎患了精神恐 惧症,而加文却认为她受了她去世的曾祖母的诅咒。尽管斯考蒂认为加文的想法十分天真,但他还是接下了这桩任务。玛伦的举止确实十分奇怪,她试过盯着曾祖母的画像看了几个小时,去过墓地,甚至还试图跳河自杀,幸好被斯考蒂救了。到底玛伦是真的受了诅咒,还是背后隐藏什么阴谋?


获奖情况


  第31届奥斯卡金像奖 (1959)
  最佳音响(提名) George Dutton
  最佳艺术指导和布景(提名) 萨姆·库默 / Frank R. McKelvy / Henry Bumstead / 哈尔·佩雷拉




Video
ID                                       : 1
Format                                   : AVC
Format/Info                              : Advanced Video Codec
Format profile                           : [email protected]
Format settings, CABAC                   : Yes
Format settings, ReFrames                : 4 frames
Codec ID                                 : V_MPEG4/ISO/AVC
Duration                                 : 2h 8mn
Bit rate                                 : 9 455 Kbps
Width                                    : 1 920 pixels
Height                                   : 1 040 pixels
Display aspect ratio                     : 1.85:1
Frame rate mode                          : Constant
Frame rate                               : 23.976 fps
Color space                              : YUV
Chroma subsampling                       : 4:2:0
Bit depth                                : 8 bits
Scan type                                : Progressive
Bits/(Pixel*Frame)                       : 0.197
Stream size                              : 8.29 GiB (84%)
Writing library                          : x264 core 128 r2216 198a7ea
Encoding settings                        : cabac=1 / ref=4 / deblock=1:0:0 / analyse=0x3:0x113 / me=umh / subme=8 / psy=1 / psy_rd=1.00:0.00 / mixed_ref=1 / me_range=16 / chroma_me=1 / trellis=1 / 8x8dct=1 / cqm=0 / deadzone=21,11 / fast_pskip=1 / chroma_qp_offset=-2 / threads=12 / lookahead_threads=2 / sliced_threads=0 / nr=0 / decimate=1 / interlaced=0 / bluray_compat=0 / constrained_intra=0 / bframes=3 / b_pyramid=2 / b_adapt=2 / b_bias=0 / direct=3 / weightb=1 / open_gop=0 / weightp=2 / keyint=240 / keyint_min=24 / scenecut=40 / intra_refresh=0 / rc_lookahead=50 / rc=2pass / mbtree=1 / bitrate=9455 / ratetol=1.0 / qcomp=0.60 / qpmin=0 / qpmax=69 / qpstep=4 / cplxblur=20.0 / qblur=0.5 / ip_ratio=1.40 / aq=1:1.00
Language                                 : English
Default                                  : Yes
Forced                                   : No

Audio
ID                                       : 2
Format                                   : DTS
Format/Info                              : Digital Theater Systems
Mode                                     : 16
Format settings, Endianness              : Big
Codec ID                                 : A_DTS
Duration                                 : 2h 8mn
Bit rate mode                            : Constant
Bit rate                                 : 1 509 Kbps
Channel(s)                               : 6 channels
Channel positions                        : Front: L C R, Side: L R, LFE
Sampling rate                            : 48.0 KHz
Bit depth                                : 24 bits
Compression mode                         : Lossy
Stream size                              : 1.35 GiB (14%)
Language                                 : English
Default                                  : Yes
Forced                                   : No

Text
ID                                       : 3
Format                                   : UTF-8
Codec ID                                 : S_TEXT/UTF8
Codec ID/Info                            : UTF-8 Plain Text
Language                                 : English
Default                                  : No
Forced                                   : No

Menu
00:00:00.000                             : en:00:00:00.000
00:03:24.996                             : en:00:03:24.996
00:05:00.258                             : en:00:05:00.258
00:11:20.305                             : en:00:11:20.305
00:16:53.304                             : en:00:16:53.304
00:22:13.791                             : en:00:22:13.791
00:25:42.499                             : en:00:25:42.499
00:27:45.789                             : en:00:27:45.789
00:33:52.822                             : en:00:33:52.822
00:38:19.589                             : en:00:38:19.589
00:40:18.374                             : en:00:40:18.374
00:42:56.574                             : en:00:42:56.574
00:43:56.008                             : en:00:43:56.008
00:53:07.976                             : en:00:53:07.976
00:58:23.625                             : en:00:58:23.625
01:02:05.180                             : en:01:02:05.180
01:05:31.302                             : en:01:05:31.302
01:08:35.528                             : en:01:08:35.528
01:12:30.638                             : en:01:12:30.638
01:16:00.222                             : en:01:16:00.222
01:18:17.234                             : en:01:18:17.234
01:23:47.814                             : en:01:23:47.814
01:25:26.413                             : en:01:25:26.413
01:29:02.629                             : en:01:29:02.629
01:31:39.160                             : en:01:31:39.160
01:38:07.173                             : en:01:38:07.173
01:42:22.762                             : en:01:42:22.762
01:45:28.322                             : en:01:45:28.322
01:49:15.340                             : en:01:49:15.340
01:52:06.178                             : en:01:52:06.178
01:57:30.502                             : en:01:57:30.502
01:59:29.371                             : en:01:59:29.371
02:02:06.069                             : en:02:02:06.069
02:05:58.092                             : en:02:05:58.092





                                                                                                                                                                                                       

                                                                                                                       
                                                                                                                                                                                                                                                        Vertigo.1958.1080p.BluRay.X264-AMIABLE.torrent (98.97 KB, 下载次数: 0)

回复

使用道具 举报

小黑屋|百度云资源论坛 |网站地图

本网站所有资源来自网络,如无意中侵犯了您的权益,请发邮件至 [email protected],立即清除相关链接

GMT+8, 2020-3-28 23:21 , Processed in 0.099270 second(s), 23 queries .

Powered by Discuz! X3.2

© 2001-2013 Comsenz Inc.

快速回复 返回顶部 返回列表