百度云资源论坛

 找回密码
 立即注册
搜索

[喜剧片] 超级无敌掌门狗:剃刀边缘 1995.1080p.BluRay.x264-CiNEFiLE 2.19GB

[复制链接]
电影首发 发表于 2015-11-15 11:46:00 | 显示全部楼层 |阅读模式

译  名 超级无敌掌门狗:剃刀边缘/酷狗宝贝3:剃刀边缘/超级无敌掌门狗之九死一生/华莱士与葛罗米特:九死一生/刀口脱险
片  名 Wallace & Gromit: A Close Shave
年  代 1995
国  家 英国
类  别 喜剧/动画/短片
语  言 英语
上映日期 1995-12-24(英国)
片  长 30分钟
导  演 尼克·帕克 Nick Park
主  演 彼得·萨利斯 Peter Sallis
      安妮·雷德 Anne Reid


简  介


  这一次,华莱士(皮特·塞利斯 Peter Sallis 配音)和他忠心耿耿的狗狗阿高开办了清洁业务。在位羊毛店清洁时,华莱士迷上了女店主温德琳(安妮·雷德 Anne Reid 配音),却不知这家羊毛店正在从事不可告人的勾当。与此同时,华莱士的家来了一名不速之客——小羊肖恩。这个大胃王惹出了不少乱子,却也给华莱士和阿高带来许多乐趣。谁知好景不长,阿高竟被当作杀羊凶手而逮捕,为了救出它,华莱士和肖恩以及其他的绵羊们组织了缜密的营救行动……
  本片荣获1996年奥斯卡电影金像奖最佳短片奖、1997年安西国际动画电影节观众奖、1996年英国电影学院奖最佳动画片奖。


获奖情况


  第68届奥斯卡金像奖 (1996)
  最佳动画短片 尼克·帕克


Video
ID                                       : 1
Format                                   : AVC
Format/Info                              : Advanced Video Codec
Format profile                           : [email protected]
Format settings, CABAC                   : Yes
Format settings, ReFrames                : 4 frames
Codec ID                                 : V_MPEG4/ISO/AVC
Duration                                 : 31mn 25s
Bit rate                                 : 9 320 Kbps
Width                                    : 1 808 pixels
Height                                   : 1 080 pixels
Display aspect ratio                     : 5:3
Frame rate mode                          : Constant
Frame rate                               : 24.000 fps
Color space                              : YUV
Chroma subsampling                       : 4:2:0
Bit depth                                : 8 bits
Scan type                                : Progressive
Bits/(Pixel*Frame)                       : 0.199
Stream size                              : 2.00 GiB (92%)
Writing library                          : x264 core 75 r1259 dd026f2
Encoding settings                        : cabac=1 / ref=4 / deblock=1:0:0 / analyse=0x3:0x113 / me=umh / subme=7 / psy=1 / psy_rd=1.0:0.0 / mixed_ref=1 / me_range=16 / chroma_me=1 / trellis=1 / 8x8dct=1 / cqm=0 / deadzone=21,11 / chroma_qp_offset=-2 / threads=12 / nr=0 / decimate=1 / mbaff=0 / bframes=3 / b_pyramid=0 / b_adapt=1 / b_bias=0 / direct=1 / wpredb=1 / keyint=250 / keyint_min=25 / scenecut=40 / rc_lookahead=40 / rc=2pass / mbtree=1 / bitrate=9320 / ratetol=1.0 / qcomp=0.60 / qpmin=10 / qpmax=51 / qpstep=4 / cplxblur=20.0 / qblur=0.5 / ip_ratio=1.40 / aq=1:1.00
Language                                 : English
Default                                  : No
Forced                                   : No

Audio
ID                                       : 2
Format                                   : AC-3
Format/Info                              : Audio Coding 3
Mode extension                           : CM (complete main)
Format settings, Endianness              : Big
Codec ID                                 : A_AC3
Duration                                 : 31mn 25s
Bit rate mode                            : Constant
Bit rate                                 : 640 Kbps
Channel(s)                               : 6 channels
Channel positions                        : Front: L C R, Side: L R, LFE
Sampling rate                            : 48.0 KHz
Compression mode                         : Lossy
Stream size                              : 144 MiB (6%)
Default                                  : Yes
Forced                                   : No

Text
ID                                       : 3
Format                                   : UTF-8
Codec ID                                 : S_TEXT/UTF8
Codec ID/Info                            : UTF-8 Plain Text
Language                                 : English
Default                                  : No
Forced                                   : No





                                                                                                                                                                                                       

                                                                                                                       
                                                                                                                                                                                                                                                        Wallace.And.Gromit.In.A.Close.Shave.1995.1080p.BluRay.x264-CiNEFiLE.torrent (44.38 KB, 下载次数: 0)

回复

使用道具 举报

小黑屋|百度云资源论坛 |网站地图

本网站所有资源来自网络,如无意中侵犯了您的权益,请发邮件至 [email protected],立即清除相关链接

GMT+8, 2020-10-26 00:07 , Processed in 0.112457 second(s), 23 queries .

Powered by Discuz! X3.2

© 2001-2013 Comsenz Inc.

快速回复 返回顶部 返回列表