百度云资源论坛

 找回密码
 立即注册
搜索

[喜剧片] 超级无敌掌门狗:面包与死亡事件 2008.STV.1080p.Bluray.x264-hV 2.18GB

[复制链接]
电影首发 发表于 2015-11-15 11:46:00 | 显示全部楼层 |阅读模式

译  名 超级无敌掌门狗:面包与死亡事件/酷狗宝贝5:面包与死亡事件/超级无敌掌门狗之面包和死亡事件/华莱士与葛罗米特:面包和死亡事件/伊为食亡
片  名 Wallace & Gromit : A Matter of Loaf and Death
年  代 2008
国  家 英国
类  别 喜剧/动画/短片
语  言 英语
上映日期 2008-12-25(英国)
片  长 30分钟
导  演 尼克·帕克 Nick Park
主  演 彼得·萨利斯 Peter Sallis
      杰拉尔丁·麦克伊万 Geraldine McEwan
      Sally Lindsay
      Melissa Collier
      Sarah Laborde


简  介


  这一次,华莱士(皮特·塞利斯 Peter Sallis 配音)和他的好狗狗阿高改行开起面包店,凭借其精良高效的设计,全自动化面包店招揽不少的主顾。可是,就在此期间,一个神秘的连环杀手先后杀害了十二位面包师傅。这一天,华莱士在送面包的过程中,意外邂逅并救助了曾经名噪一时的面包海报宣传女郎佩拉(莎莉·林德赛 Sally Lindsay 配音),二人由此相识相知,共坠爱河。在这一过程中,阿高感觉备受冷落。偶然的机会,阿高发现佩拉德真身竟是那个恐怖的连环杀手!他的主人华莱士俨然成为下一个将被狙杀的对象……
  本片荣获2009年英国电影学院奖最佳动画短片奖、2009年安妮奖最佳动画短片奖。


获奖情况


  第82届奥斯卡金像奖 (2010)
  最佳动画短片(提名) 尼克·帕克




Video
ID                                       : 1
Format                                   : AVC
Format/Info                              : Advanced Video Codec
Format profile                           : [email protected]
Format settings, CABAC                   : Yes
Format settings, ReFrames                : 4 frames
Codec ID                                 : V_MPEG4/ISO/AVC
Duration                                 : 29mn 20s
Bit rate                                 : 9 128 Kbps
Width                                    : 1 920 pixels
Height                                   : 1 080 pixels
Display aspect ratio                     : 16:9
Frame rate mode                          : Constant
Frame rate                               : 25.000 fps
Color space                              : YUV
Chroma subsampling                       : 4:2:0
Bit depth                                : 8 bits
Scan type                                : Progressive
Bits/(Pixel*Frame)                       : 0.176
Stream size                              : 1.83 GiB (84%)
Writing library                          : x264 core 66 r1110 05afd8e
Encoding settings                        : cabac=1 / ref=4 / deblock=1:0:0 / analyse=0x3:0x133 / me=umh / subme=7 / psy_rd=1.0:0.0 / mixed_ref=1 / me_range=16 / chroma_me=1 / trellis=1 / 8x8dct=1 / cqm=0 / deadzone=21,11 / chroma_qp_offset=-2 / threads=6 / nr=0 / decimate=1 / mbaff=0 / bframes=3 / b_pyramid=1 / b_adapt=1 / b_bias=0 / direct=1 / wpredb=1 / keyint=250 / keyint_min=25 / scenecut=40(pre) / rc=2pass / bitrate=9128 / ratetol=1.0 / qcomp=0.60 / qpmin=10 / qpmax=51 / qpstep=4 / cplxblur=20.0 / qblur=0.5 / ip_ratio=1.40 / pb_ratio=1.30 / aq=1:1.00
Language                                 : English
Default                                  : Yes
Forced                                   : No

Audio
ID                                       : 2
Format                                   : DTS
Format/Info                              : Digital Theater Systems
Mode                                     : 16
Format settings, Endianness              : Big
Codec ID                                 : A_DTS
Duration                                 : 29mn 20s
Bit rate mode                            : Constant
Bit rate                                 : 1 510 Kbps
Channel(s)                               : 6 channels
Channel positions                        : Front: L C R, Side: L R, LFE
Sampling rate                            : 48.0 KHz
Bit depth                                : 24 bits
Compression mode                         : Lossy
Stream size                              : 317 MiB (14%)
Default                                  : Yes
Forced                                   : No




                                                                                                                                                                                                       

                                                                                                                       
                                                                                                                                                                                                                                                        Wallace.And.Gromit.In.A.Matter.Of.Loaf.And.Death.2008.STV.1080p.Bluray.x264-hV.torrent (44.3 KB, 下载次数: 0)

回复

使用道具 举报

小黑屋|百度云资源论坛 |网站地图

本网站所有资源来自网络,如无意中侵犯了您的权益,请发邮件至 [email protected],立即清除相关链接

GMT+8, 2020-11-26 12:35 , Processed in 0.096167 second(s), 23 queries .

Powered by Discuz! X3.2

© 2001-2013 Comsenz Inc.

快速回复 返回顶部 返回列表