百度云资源论坛

 找回密码
 立即注册
搜索

[喜剧片] 超级无敌掌门狗:引鹅入室 1993.1080p.BluRay.x264-CiNEFiLE 2.19GB

[复制链接]
电影首发 发表于 2015-11-15 11:46:00 | 显示全部楼层 |阅读模式

译  名 超级无敌掌门狗:引鹅入室/酷狗宝贝2:引鹅入室/超级无敌掌门狗:着错裤(港)/超级无敌掌门狗之神奇太空衣/华莱士与葛罗米特:神奇太空衣/不合适的裤子/裤入歧途
片  名 Wallace & Gromit: The Wrong Trousers
年  代 1993
国  家 英国
类  别 喜剧/动画/短片
语  言 英语
上映日期 1993-12-03(美国)/1993-12-26(英国)
片  长 30分钟
导  演 尼克·帕克 Nick Park
主  演 彼得·萨利斯 Peter Sallis


简  介


  虽然创造了无数令人惊叹的发明,可是华莱士(皮特·塞利斯 Peter Sallis 配音)却面临着入不敷出的窘境。为此,他决定将空置的房间对外出租。不久租客上门,来者是一只沉默冷冰冰的企鹅。某天,华莱士送给狗狗阿高的机器裤子似乎引起了企鹅的注意。此后的日子里,企鹅大献殷勤,令阿高倍感冷落,于是在一个雨夜收拾起行囊离家出走。但阿高意外发现,那只企鹅竟是警方通缉的要犯。与此同时,企鹅利用机器裤子开始了他罪恶的犯罪计划……
  本片荣获1994年奥斯卡电影金像奖最佳短片奖、1994年英国电影学院奖最佳动画片奖、1994年渥太华国际动画电影节大奖和观众奖。


获奖情况


  第66届奥斯卡金像奖 (1994)
  最佳动画短片 尼克·帕克




Video
ID                                       : 1
Format                                   : AVC
Format/Info                              : Advanced Video Codec
Format profile                           : [email protected]
Format settings, CABAC                   : Yes
Format settings, ReFrames                : 5 frames
Codec ID                                 : V_MPEG4/ISO/AVC
Duration                                 : 30mn 19s
Bit rate                                 : 9 680 Kbps
Width                                    : 1 440 pixels
Height                                   : 1 080 pixels
Display aspect ratio                     : 4:3
Frame rate mode                          : Constant
Frame rate                               : 24.000 fps
Color space                              : YUV
Chroma subsampling                       : 4:2:0
Bit depth                                : 8 bits
Scan type                                : Progressive
Bits/(Pixel*Frame)                       : 0.259
Stream size                              : 2.01 GiB (92%)
Writing library                          : x264 core 75 r1259 dd026f2
Encoding settings                        : cabac=1 / ref=5 / deblock=1:0:0 / analyse=0x3:0x113 / me=umh / subme=7 / psy=1 / psy_rd=1.0:0.0 / mixed_ref=1 / me_range=16 / chroma_me=1 / trellis=1 / 8x8dct=1 / cqm=0 / deadzone=21,11 / chroma_qp_offset=-2 / threads=12 / nr=0 / decimate=1 / mbaff=0 / bframes=3 / b_pyramid=0 / b_adapt=1 / b_bias=0 / direct=1 / wpredb=1 / keyint=250 / keyint_min=25 / scenecut=40 / rc_lookahead=40 / rc=2pass / mbtree=1 / bitrate=9680 / ratetol=1.0 / qcomp=0.60 / qpmin=10 / qpmax=51 / qpstep=4 / cplxblur=20.0 / qblur=0.5 / ip_ratio=1.40 / aq=1:1.00
Language                                 : English
Default                                  : No
Forced                                   : No

Audio
ID                                       : 2
Format                                   : AC-3
Format/Info                              : Audio Coding 3
Mode extension                           : CM (complete main)
Format settings, Endianness              : Big
Codec ID                                 : A_AC3
Duration                                 : 30mn 19s
Bit rate mode                            : Constant
Bit rate                                 : 640 Kbps
Channel(s)                               : 6 channels
Channel positions                        : Front: L C R, Side: L R, LFE
Sampling rate                            : 48.0 KHz
Compression mode                         : Lossy
Stream size                              : 139 MiB (6%)
Default                                  : Yes
Forced                                   : No

Text
ID                                       : 3
Format                                   : UTF-8
Codec ID                                 : S_TEXT/UTF8
Codec ID/Info                            : UTF-8 Plain Text
Language                                 : English
Default                                  : No
Forced                                   : No





                                                                                                                                                                                                       

                                                                                                                       
                                                                                                                                                                                                                                                        Wallace.And.Gromit.In.The.Wrong.Trousers.1993.1080p.BluRay.x264-CiNEFiLE.torrent (44.4 KB, 下载次数: 0)

回复

使用道具 举报

小黑屋|百度云资源论坛 |网站地图

本网站所有资源来自网络,如无意中侵犯了您的权益,请发邮件至 aa63534[email protected],立即清除相关链接

GMT+8, 2020-7-14 14:21 , Processed in 0.102141 second(s), 23 queries .

Powered by Discuz! X3.2

© 2001-2013 Comsenz Inc.

快速回复 返回顶部 返回列表