百度云资源论坛

 找回密码
 立即注册
搜索

[动作片] 连锁反应/连锁反击 Chain.Reaction.1996.1080p.BluRay.x264-TENEIGHTY 10.93GB ... ...

[复制链接]
电影首发 发表于 2015-11-15 11:46:00 | 显示全部楼层 |阅读模式

译  名 连锁反应/连锁反击
片  名 Chain Reaction
年  代 1996
国  家 美国
类  别 动作/惊悚/剧情
语  言 英语
上映日期 1996-08-02
片  长 107 分钟
导  演 安德鲁·戴维斯 Andrew Davis
主  演 基努·里维斯 Keanu Reeves
      摩根·弗里曼 Morgan Freeman
      蕾切尔·薇兹 Rachel Weisz
      弗莱德·沃德 Fred Ward
      布莱恩·考克斯 Brian Cox


简  介


  随着科技的进步和发展,科学家们终于研究出了能将水转化为能源的神奇技术,研究人员们想将研究结果公之于众造福人类,却遭到了金主保罗(摩根·弗里曼 Morgan Freeman 饰)的反对。
  灾难降临了,在庆祝实验成功的晚宴后,有人杀害了巴克利博士(Nicholas Rudall 饰)后又在实验室里安装了定时炸弹,幸运地在悲剧中幸存的两名研究人员莉莉(蕾切尔·薇姿 Rachel Weisz 饰)和埃迪(基努·里维斯 Keanu Reeves 饰)还未能松一口气就发觉他们已经成为了警方的重大嫌疑人。为了证明自己的清白,莉莉和埃迪联手展开了对事件的调查。站在这一连串恐怖袭击事件背后究竟是谁?他这样的大动干戈又是为了得到什么呢?




Video
ID                                       : 1
Format                                   : AVC
Format/Info                              : Advanced Video Codec
Format profile                           : [email protected]
Format settings, CABAC                   : Yes
Format settings, ReFrames                : 4 frames
Muxing mode                              : Header stripping
Codec ID                                 : V_MPEG4/ISO/AVC
Duration                                 : 1h 46mn
Bit rate                                 : 13.2 Mbps
Width                                    : 1 920 pixels
Height                                   : 1 040 pixels
Display aspect ratio                     : 1.85:1
Frame rate mode                          : Constant
Frame rate                               : 23.976 fps
Color space                              : YUV
Chroma subsampling                       : 4:2:0
Bit depth                                : 8 bits
Scan type                                : Progressive
Bits/(Pixel*Frame)                       : 0.275
Stream size                              : 9.59 GiB (88%)
Writing library                          : x264 core 116 r2074 2641b9e
Encoding settings                        : cabac=1 / ref=4 / deblock=1:0:0 / analyse=0x3:0x133 / me=umh / subme=10 / psy=1 / psy_rd=1.00:0.00 / mixed_ref=1 / me_range=16 / chroma_me=1 / trellis=2 / 8x8dct=1 / cqm=0 / deadzone=21,11 / fast_pskip=0 / chroma_qp_offset=-2 / threads=18 / sliced_threads=0 / nr=0 / decimate=1 / interlaced=0 / bluray_compat=0 / constrained_intra=0 / bframes=3 / b_pyramid=2 / b_adapt=1 / b_bias=0 / direct=1 / weightb=1 / open_gop=0 / weightp=2 / keyint=250 / keyint_min=23 / scenecut=40 / intra_refresh=0 / rc_lookahead=40 / rc=2pass / mbtree=1 / bitrate=13174 / ratetol=1.0 / qcomp=0.60 / qpmin=0 / qpmax=69 / qpstep=4 / cplxblur=20.0 / qblur=0.5 / ip_ratio=1.40 / aq=1:1.00
Language                                 : English
Default                                  : Yes
Forced                                   : No

Audio
ID                                       : 2
Format                                   : DTS
Format/Info                              : Digital Theater Systems
Mode                                     : 16
Format settings, Endianness              : Big
Muxing mode                              : Header stripping
Codec ID                                 : A_DTS
Duration                                 : 1h 46mn
Bit rate mode                            : Constant
Bit rate                                 : 1 509 Kbps
Channel(s)                               : 6 channels
Channel positions                        : Front: L C R, Side: L R, LFE
Sampling rate                            : 48.0 KHz
Bit depth                                : 24 bits
Compression mode                         : Lossy
Stream size                              : 1.12 GiB (10%)
Default                                  : Yes
Forced                                   : No

Text
ID                                       : 3
Format                                   : UTF-8
Codec ID                                 : S_TEXT/UTF8
Codec ID/Info                            : UTF-8 Plain Text
Title                                    : English
Language                                 : English
Default                                  : No
Forced                                   : No






                                                                                                                                                                                                       

                                                                                                                       
                                                                                                                                                                                                                                                        Chain.Reaction.1996.1080p.BluRay.x264-TENEIGHTY.torrent (55.22 KB, 下载次数: 0)

回复

使用道具 举报

小黑屋|百度云资源论坛 |网站地图

本网站所有资源来自网络,如无意中侵犯了您的权益,请发邮件至 [email protected],立即清除相关链接

GMT+8, 2020-7-8 09:46 , Processed in 0.100805 second(s), 23 queries .

Powered by Discuz! X3.2

© 2001-2013 Comsenz Inc.

快速回复 返回顶部 返回列表