百度云资源论坛

 找回密码
 立即注册
搜索

[犯罪片] 玉面煞星 Johnny.Handsome.1989.1080p.BluRay.x264-FHD 6.41GB

[复制链接]
电影首发 发表于 2015-11-15 11:46:00 | 显示全部楼层 |阅读模式

译  名 玉面煞星
片  名 Johnny Handsome
年  代 1989
国  家 美国
类  别 犯罪/剧情/惊悚
语  言 英语
上映日期 1989-09-12
片  长 94 分钟
导  演 沃尔特·希尔 Walter Hill
主  演 米基·洛克 Mickey Rourke
      艾伦·巴金 Ellen Barkin
      伊丽莎白·麦戈文 Elizabeth McGovern
      摩根·弗里曼 Morgan Freeman
      福里斯特·惠特克 Forest Whitaker


简  介


  美国影星鲁尔克在片中饰演一名悍匪,在抢劫行动中遭同党出卖而被捕入狱。狱中施行一个改造罪犯的新计划,将他们加以整容。于是他在出狱后以新面目对那些被怀疑整他的人逐一加以报复。本片是一部极度暴力化的复仇电影,以颓废气质著称的米基.鲁尔克充分表现出男主角的怒火烈焰,导演沃尔特.希尔对动作火爆场面的掌握亦具专业水准。


译  名 玉面煞星
片  名 Johnny Handsome
年  代 1989
国  家 美国
类  别 犯罪/剧情/惊悚
语  言 英语
上映日期 1989-09-12
IMDb评分  6.1/10 from 6,552 users
IMDb链接  http://www.imdb.com/title/tt0097626/
豆瓣评分 6.4/10 from 166 users
豆瓣链接 http://movie.douban.com/subject/1301800/
片  长 94 分钟
导  演 沃尔特·希尔 Walter Hill
主  演 米基·洛克 Mickey Rourke
      艾伦·巴金 Ellen Barkin
      伊丽莎白·麦戈文 Elizabeth McGovern
      摩根·弗里曼 Morgan Freeman
      福里斯特·惠特克 Forest Whitaker


简  介


  美国影星鲁尔克在片中饰演一名悍匪,在抢劫行动中遭同党出卖而被捕入狱。狱中施行一个改造罪犯的新计划,将他们加以整容。于是他在出狱后以新面目对那些被怀疑整他的人逐一加以报复。本片是一部极度暴力化的复仇电影,以颓废气质著称的米基.鲁尔克充分表现出男主角的怒火烈焰,导演沃尔特.希尔对动作火爆场面的掌握亦具专业水准。




Video
ID                                       : 1
Format                                   : AVC
Format/Info                              : Advanced Video Codec
Format profile                           : [email protected]
Format settings, CABAC                   : Yes
Format settings, ReFrames                : 4 frames
Codec ID                                 : V_MPEG4/ISO/AVC
Duration                                 : 1h 33mn
Bit rate                                 : 8 295 Kbps
Width                                    : 1 920 pixels
Height                                   : 1 040 pixels
Display aspect ratio                     : 1.85:1
Frame rate mode                          : Constant
Frame rate                               : 23.976 fps
Color space                              : YUV
Chroma subsampling                       : 4:2:0
Bit depth                                : 8 bits
Scan type                                : Progressive
Bits/(Pixel*Frame)                       : 0.173
Stream size                              : 5.29 GiB (83%)
Writing library                          : x264 core 104 r1688 0b36c6d
Encoding settings                        : cabac=1 / ref=4 / deblock=1:0:0 / analyse=0x3:0x113 / me=umh / subme=7 / psy=1 / psy_rd=1.00:0.00 / mixed_ref=1 / me_range=16 / chroma_me=1 / trellis=1 / 8x8dct=1 / cqm=0 / deadzone=21,11 / fast_pskip=0 / chroma_qp_offset=-2 / threads=6 / sliced_threads=0 / nr=0 / decimate=1 / interlaced=0 / constrained_intra=0 / bframes=3 / b_pyramid=2 / b_adapt=1 / b_bias=0 / direct=1 / weightb=1 / open_gop=0 / weightp=2 / keyint=250 / keyint_min=23 / scenecut=40 / intra_refresh=0 / rc_lookahead=40 / rc=2pass / mbtree=1 / bitrate=8295 / ratetol=1.0 / qcomp=0.60 / qpmin=10 / qpmax=51 / qpstep=4 / cplxblur=20.0 / qblur=0.5 / ip_ratio=1.40 / aq=1:1.00
Language                                 : English
Default                                  : Yes
Forced                                   : No

Audio
ID                                       : 2
Format                                   : DTS
Format/Info                              : Digital Theater Systems
Mode                                     : 16
Format settings, Endianness              : Big
Codec ID                                 : A_DTS
Duration                                 : 1h 33mn
Bit rate mode                            : Constant
Bit rate                                 : 1 509 Kbps
Channel(s)                               : 2 channels
Channel positions                        : Front: L R
Sampling rate                            : 48.0 KHz
Bit depth                                : 24 bits
Compression mode                         : Lossy
Stream size                              : 1 011 MiB (15%)
Title                                    : DTS 5.1
Language                                 : English
Default                                  : Yes
Forced                                   : No

Text
ID                                       : 3
Format                                   : UTF-8
Codec ID                                 : S_TEXT/UTF8
Codec ID/Info                            : UTF-8 Plain Text
Language                                 : English
Default                                  : No
Forced                                   : No





                                                                                                                                                                                                       

                                                                                                                       
                                                                                                                                                                                                                                                        Johnny.Handsome.1989.1080p.BluRay.x264-FHD.torrent (64.65 KB, 下载次数: 0)

回复

使用道具 举报

小黑屋|百度云资源论坛 |网站地图

本网站所有资源来自网络,如无意中侵犯了您的权益,请发邮件至 [email protected],立即清除相关链接

GMT+8, 2020-7-14 14:19 , Processed in 0.111889 second(s), 23 queries .

Powered by Discuz! X3.2

© 2001-2013 Comsenz Inc.

快速回复 返回顶部 返回列表