百度云资源论坛

 找回密码
 立即注册
搜索

[恐怖片] 死灵之书/夜夜破胆 Necronomicon.1993.1080p.BluRay.x264-SPINE 9.91GB

[复制链接]
电影首发 发表于 2015-11-15 11:46:00 | 显示全部楼层 |阅读模式

译  名 死灵之书/夜夜破胆
片  名 Necronomicon
年  代 1993
国  家 法国/美国
类  别 恐怖
语  言 英语
上映日期 1994-05-11
片  长 96 分钟
导  演 布莱恩·尤兹纳 Brian Yuzna / 克里斯多夫·甘斯 Christophe Gans / 金子修介 Shusuke Kaneko
主  演 Jeffrey Combs


简  介


  1,因驾驶失误,富商爱德华(Bruce Payne 饰)的妻子爱玛(Denice D. Lewis 饰)不幸死于车祸,极度伤心和内疚的爱德华通过《死亡之书》的帮助,使爱玛复活。然而事情的发展却出乎他的意料……
  2,疯狂科学家迈登博士(David Warner 饰)躲在寒冷的实验室里,潜心进行他的长寿研究。百年的岁月流逝,他和女助手日久生情,然一场突如其来的火灾摧毁了一切……
  3,夫妻警察在追捕罪犯时走失,莎拉(Signy Coleman 饰)为寻找丈夫保罗(Obba Babatundé 饰)走入一间布满残肢断体的恐怖房间,她的噩梦从此开始……
  本片根据魔幻小说的创始人美国作家霍华德•菲利浦•勒夫卡夫特的作品《死亡之书》中的几则短篇故事改编,并荣获1994年意大利罗马奇幻电影节最佳特效奖、1994年葡萄牙奇幻电影节国际奇幻电影奖最佳特效奖。




Video
ID                                       : 1
Format                                   : AVC
Format/Info                              : Advanced Video Codec
Format profile                           : [email protected]
Format settings, CABAC                   : Yes
Format settings, ReFrames                : 4 frames
Codec ID                                 : V_MPEG4/ISO/AVC
Duration                                 : 1h 36mn
Bit rate                                 : 13.2 Mbps
Width                                    : 1 920 pixels
Height                                   : 1 080 pixels
Display aspect ratio                     : 16:9
Frame rate mode                          : Constant
Frame rate                               : 23.976 fps
Color space                              : YUV
Chroma subsampling                       : 4:2:0
Bit depth                                : 8 bits
Scan type                                : Progressive
Bits/(Pixel*Frame)                       : 0.265
Stream size                              : 8.69 GiB (88%)
Writing library                          : x264 core 148 r2638 7599210
Encoding settings                        : cabac=1 / ref=4 / deblock=1:0:0 / analyse=0x3:0x133 / me=umh / subme=10 / psy=1 / psy_rd=1.00:0.00 / mixed_ref=1 / me_range=24 / chroma_me=1 / trellis=2 / 8x8dct=1 / cqm=0 / deadzone=21,11 / fast_pskip=1 / chroma_qp_offset=-2 / threads=12 / lookahead_threads=2 / sliced_threads=0 / nr=0 / decimate=1 / interlaced=0 / bluray_compat=0 / constrained_intra=0 / bframes=8 / b_pyramid=2 / b_adapt=2 / b_bias=0 / direct=3 / weightb=1 / open_gop=0 / weightp=2 / keyint=240 / keyint_min=23 / scenecut=40 / intra_refresh=0 / rc_lookahead=60 / rc=2pass / mbtree=1 / bitrate=13172 / ratetol=1.0 / qcomp=0.60 / qpmin=0 / qpmax=69 / qpstep=4 / cplxblur=20.0 / qblur=0.5 / vbv_maxrate=62500 / vbv_bufsize=78125 / nal_hrd=none / filler=0 / ip_ratio=1.40 / aq=1:1.00
Default                                  : Yes
Forced                                   : No

Audio
ID                                       : 2
Format                                   : DTS
Format/Info                              : Digital Theater Systems
Mode                                     : 16
Format settings, Endianness              : Big
Codec ID                                 : A_DTS
Duration                                 : 1h 36mn
Bit rate mode                            : Constant
Bit rate                                 : 1 509 Kbps
Channel(s)                               : 6 channels
Channel positions                        : Front: L C R, Side: L R, LFE
Sampling rate                            : 48.0 KHz
Bit depth                                : 24 bits
Compression mode                         : Lossy
Stream size                              : 1.02 GiB (10%)
Language                                 : English
Default                                  : Yes
Forced                                   : No

Menu
00:00:00.000                             : en:00:00:00.000
00:06:10.704                             : en:00:06:10.704
00:13:32.145                             : en:00:13:32.145
00:17:56.033                             : en:00:17:56.033
00:22:44.488                             : en:00:22:44.488
00:24:25.464                             : en:00:24:25.464
00:33:04.316                             : en:00:33:04.316
00:34:08.296                             : en:00:34:08.296
00:37:27.745                             : en:00:37:27.745
00:44:21.075                             : en:00:44:21.075
00:53:23.992                             : en:00:53:23.992
00:59:29.983                             : en:00:59:29.983
01:00:12.025                             : en:01:00:12.025
01:06:49.797                             : en:01:06:49.797
01:11:30.620                             : en:01:11:30.620
01:15:28.732                             : en:01:15:28.732
01:25:28.039                             : en:01:25:28.039
01:29:30.281                             : en:01:29:30.281





                                                                                                                                                                                                       

                                                                                                                       
                                                                                                                                                                                                                                                        Necronomicon.1993.1080p.BluRay.x264-SPINE.torrent (99.63 KB, 下载次数: 0)

回复

使用道具 举报

小黑屋|百度云资源论坛 |网站地图

本网站所有资源来自网络,如无意中侵犯了您的权益,请发邮件至 [email protected],立即清除相关链接

GMT+8, 2020-4-9 06:13 , Processed in 0.096150 second(s), 23 queries .

Powered by Discuz! X3.2

© 2001-2013 Comsenz Inc.

快速回复 返回顶部 返回列表