百度云资源论坛

 找回密码
 立即注册
搜索

[喜剧片] 加菲猫 Garfield.2004.1080p.BluRay.x264-Japhson 6.56GB

[复制链接]
电影首发 发表于 2015-11-15 11:22:00 | 显示全部楼层 |阅读模式

译  名 加菲猫
片  名 Garfield
年  代 2004
国  家 美国
类  别 喜剧/家庭
语  言 英语
上映日期 2004-06-11(美国)/2004-12-17(中国大陆)
片  长 80 分钟
导  演 皮特·休伊特 Peter Hewitt
主  演 比尔·默瑞 Bill Murray
      詹妮弗·洛芙·休伊特 Jennifer Love Hewitt
      布瑞金·梅耶 Breckin Meyer
      斯蒂芬·托布罗斯基 Stephen Tobolowsky


简  介


  加菲猫从小到大的生活都沉浸在――高热量的食物,睡觉,捉弄愚蠢的狗狗和主人乔恩•阿卜(布瑞金•梅耶 Breckin Meyer  饰)的宠爱中,加菲觉得这就是完美的生活。直到有一天,乔恩带加菲去宠物医院时,受美女兽医所托领养了小狗欧弟,加菲的生活彻底改变。
  欧弟的到来意味着要和加菲分享食物和阿卜的宠爱,更让加菲嫉妒的是阿卜和美女兽医约会竟然带欧弟而不带它。加菲恨不得将欧弟赶出家门。一晚,加菲将欧弟关在门外,原只想惩罚一下欧弟,没想到欧弟走失了。
  阿卜四出寻找欧弟未果。加菲通过调查,得知欧弟被残忍的训狗师捉走了。加菲决定大展身手,只身前往救出欧弟。




Video
ID                                       : 1
Format                                   : AVC
Format/Info                              : Advanced Video Codec
Format profile                           : [email protected]
Format settings, CABAC                   : Yes
Format settings, ReFrames                : 4 frames
Codec ID                                 : V_MPEG4/ISO/AVC
Duration                                 : 1h 20mn
Bit rate                                 : 10.2 Mbps
Width                                    : 1 920 pixels
Height                                   : 1 040 pixels
Display aspect ratio                     : 1.85:1
Frame rate mode                          : Constant
Frame rate                               : 23.976 fps
Color space                              : YUV
Chroma subsampling                       : 4:2:0
Bit depth                                : 8 bits
Scan type                                : Progressive
Bits/(Pixel*Frame)                       : 0.213
Stream size                              : 5.58 GiB (85%)
Writing library                          : x264 core 88 r1462 7fcffde
Encoding settings                        : cabac=1 / ref=4 / deblock=1:-1:-1 / analyse=0x3:0x113 / me=umh / subme=7 / psy=1 / psy_rd=1.00:0.00 / mixed_ref=1 / me_range=16 / chroma_me=1 / trellis=2 / 8x8dct=1 / cqm=0 / deadzone=21,11 / fast_pskip=1 / chroma_qp_offset=-2 / threads=12 / sliced_threads=0 / nr=0 / decimate=1 / mbaff=0 / constrained_intra=0 / bframes=3 / b_pyramid=2 / b_adapt=2 / b_bias=0 / direct=3 / wpredb=1 / wpredp=2 / keyint=250 / keyint_min=25 / scenecut=40 / intra_refresh=0 / rc_lookahead=40 / rc=2pass / mbtree=1 / bitrate=10199 / ratetol=1.0 / qcomp=0.60 / qpmin=10 / qpmax=51 / qpstep=4 / cplxblur=20.0 / qblur=0.5 / vbv_maxrate=50000 / vbv_bufsize=50000 / ip_ratio=1.40 / aq=1:1.00
Language                                 : English
Default                                  : Yes
Forced                                   : Yes

Audio
ID                                       : 2
Format                                   : DTS
Format/Info                              : Digital Theater Systems
Mode                                     : 16
Format settings, Endianness              : Big
Codec ID                                 : A_DTS
Duration                                 : 1h 20mn
Bit rate mode                            : Constant
Bit rate                                 : 1 509 Kbps
Channel(s)                               : 6 channels
Channel positions                        : Front: L C R, Side: L R, LFE
Sampling rate                            : 48.0 KHz
Bit depth                                : 24 bits
Compression mode                         : Lossy
Stream size                              : 866 MiB (13%)
Language                                 : English
Default                                  : Yes
Forced                                   : Yes






                                                                                                                                                                                                       

                                                                                                                       
                                                                                                                                                                                                                                                        Garfield.2004.1080p.BluRay.x264-Japhson.torrent (66.11 KB, 下载次数: 0)

回复

使用道具 举报

小黑屋|百度云资源论坛 |网站地图

本网站所有资源来自网络,如无意中侵犯了您的权益,请发邮件至 [email protected],立即清除相关链接

GMT+8, 2020-9-22 15:51 , Processed in 0.104788 second(s), 23 queries .

Powered by Discuz! X3.2

© 2001-2013 Comsenz Inc.

快速回复 返回顶部 返回列表