百度云资源论坛

 找回密码
 立即注册
搜索

[动作片] 极限特工2 xXx.State.Of.The.Union.2005.1080p.BluRay.x264-HANGOVER 7.95GB

[复制链接]
电影首发 发表于 2015-11-15 11:22:00 | 显示全部楼层 |阅读模式

译  名 极限特工2/3X之特种叛变/限制级战警2:极限公国/极限战士
片  名 xXx: State of the Union
年  代 2005
国  家 美国
类  别 动作/犯罪/冒险/惊悚
语  言 英语
上映日期 2005-04-29(美国)/2005-06-17(中国大陆)
片  长 101 分钟
导  演 李·塔玛霍瑞 Lee Tamahori
主  演 艾斯·库珀 Ice Cube
      塞缪尔·杰克逊 Samuel L. Jackson
      威廉·达福 Willem Dafoe
      斯科特·斯比德曼 Scott Speedman
      彼得·斯特劳斯 Peter Strauss
      桑妮·马布雷 Sunny Mabrey
      诺娜·加耶 Nona Gaye


简  介


  在上一集中大显神威的特工头子奥古斯塔斯(塞缪尔•杰克逊 Samuel L. Jackson 饰)这次遇到了大麻烦,他和武器专家托尼在国家安全局的地下指挥中心竟遭到杀手追杀。奥古斯塔斯怀疑这些杀手是被政府内部激进分子指派,蓄意颠覆国家政权,于是他希望物色一名合适的特工戳穿害群之马的险恶阴谋。最后,奥古斯塔斯找到了最佳人选前特种兵戴瑞斯(艾斯•库珀 Ice Cube 饰),他因殴打上级军官现在正被军警监禁。奥古斯塔斯想方设法帮助戴瑞斯越狱成功,并说服他接受了这一国家重任。于是,戴瑞斯开始行动了!




Video
ID                                       : 1
Format                                   : AVC
Format/Info                              : Advanced Video Codec
Format profile                           : [email protected]
Format settings, CABAC                   : Yes
Format settings, ReFrames                : 3 frames
Codec ID                                 : V_MPEG4/ISO/AVC
Duration                                 : 1h 40mn
Bit rate                                 : 10.6 Mbps
Width                                    : 1 920 pixels
Height                                   : 800 pixels
Display aspect ratio                     : 2.40:1
Frame rate mode                          : Constant
Frame rate                               : 23.976 fps
Color space                              : YUV
Chroma subsampling                       : 4:2:0
Bit depth                                : 8 bits
Scan type                                : Progressive
Bits/(Pixel*Frame)                       : 0.289
Stream size                              : 7.34 GiB (92%)
Writing library                          : x264 core 64 r987M e71168d
Encoding settings                        : cabac=1 / ref=3 / deblock=1:-1:-1 / analyse=0x3:0x113 / me=hex / subme=6 / psy_rd=1.0:0.0 / brdo=0 / mixed_ref=1 / me_range=16 / chroma_me=1 / trellis=1 / 8x8dct=1 / cqm=0 / deadzone=21,11 / chroma_qp_offset=-2 / threads=3 / nr=0 / decimate=0 / mbaff=0 / bframes=16 / b_pyramid=1 / b_adapt=1 / b_bias=0 / direct=3 / wpredb=1 / bime=1 / keyint=250 / keyint_min=25 / scenecut=40(pre) / rc=2pass / bitrate=10625 / ratetol=1.0 / qcomp=0.60 / qpmin=10 / qpmax=51 / qpstep=4 / cplxblur=20.0 / qblur=0.5 / ip_ratio=1.40 / pb_ratio=1.30 / aq=1:1.00
Language                                 : English
Default                                  : Yes
Forced                                   : No

Audio
ID                                       : 2
Format                                   : AC-3
Format/Info                              : Audio Coding 3
Mode extension                           : CM (complete main)
Format settings, Endianness              : Big
Codec ID                                 : A_AC3
Duration                                 : 1h 40mn
Bit rate mode                            : Constant
Bit rate                                 : 640 Kbps
Channel(s)                               : 6 channels
Channel positions                        : Front: L C R, Side: L R, LFE
Sampling rate                            : 48.0 KHz
Compression mode                         : Lossy
Stream size                              : 462 MiB (6%)
Language                                 : English
Default                                  : Yes
Forced                                   : No





                                                                                                                                                                                                       

                                                                                                                       
                                                                                                                                                                                                                                                        xXx.State.Of.The.Union.2005.1080p.BluRay.x264-HANGOVER.torrent (80.03 KB, 下载次数: 0)

回复

使用道具 举报

小黑屋|百度云资源论坛 |网站地图

本网站所有资源来自网络,如无意中侵犯了您的权益,请发邮件至 [email protected],立即清除相关链接

GMT+8, 2020-7-14 15:57 , Processed in 0.098922 second(s), 23 queries .

Powered by Discuz! X3.2

© 2001-2013 Comsenz Inc.

快速回复 返回顶部 返回列表