百度云资源论坛

 找回密码
 立即注册
搜索

[喜剧片] 加菲猫2 Garfield.2.2006.1080p.BluRay.x264.DTS-MAGiCAL 7.5GB

[复制链接]
电影首发 发表于 2015-11-15 11:22:00 | 显示全部楼层 |阅读模式

译  名 加菲猫2/加菲猫2·双猫记/加菲猫2之双猫记
片  名 Garfield: A Tail of Two Kitties
年  代 2006
国  家 英国/美国
类  别 喜剧/家庭
语  言 英语
上映日期 2006-06-16(美国)
片  长 78 分钟/86 分钟(加长DVD版)
导  演 Tim Hill
主  演 比尔·默瑞 Bill Murray
      布瑞金·梅耶 Breckin Meyer
      詹妮弗·洛芙·休伊特 Jennifer Love Hewitt
      蒂姆·克里 Tim Curry
      比利·康诺利 Billy Connolly


简  介


  慵懒搞怪的加菲猫又回来了!
  这次加菲和主人乔恩(Breckin Meyer 布瑞金•梅耶 饰)远赴英国旅行,一路上它花招不断,主仆俩闹出不少的笑话。巧合的是,伦敦有一只出身名门的猫和加菲长得极其相似,阴差阳错之下它们互换了身份,加菲因此享受了一把它梦寐以求的奢侈而豪华的生活。
  贵族猫继承了主人的泼天财富,引起了主人贪心亲戚达吉斯(Billy Connolly 饰)的忌恨。达吉斯坏招频出,意欲置其于死地,我们的假贵族加菲面对这个凶险的敌人该如何招架呢?




Video
ID                                       : 1
Format                                   : AVC
Format/Info                              : Advanced Video Codec
Format profile                           : [email protected]
Format settings, CABAC                   : Yes
Format settings, ReFrames                : 4 frames
Codec ID                                 : V_MPEG4/ISO/AVC
Duration                                 : 1h 25mn
Bit rate                                 : 11.0 Mbps
Width                                    : 1 920 pixels
Height                                   : 1 040 pixels
Display aspect ratio                     : 1.85:1
Frame rate mode                          : Constant
Frame rate                               : 23.976 fps
Color space                              : YUV
Chroma subsampling                       : 4:2:0
Bit depth                                : 8 bits
Scan type                                : Progressive
Bits/(Pixel*Frame)                       : 0.230
Stream size                              : 6.45 GiB (86%)
Writing library                          : x264 core 104 r1698 c41b8f0
Encoding settings                        : cabac=1 / ref=4 / deblock=1:0:0 / analyse=0x3:0x133 / me=umh / subme=7 / psy=1 / psy_rd=1.00:0.00 / mixed_ref=1 / me_range=16 / chroma_me=1 / trellis=1 / 8x8dct=1 / cqm=0 / deadzone=21,11 / fast_pskip=1 / chroma_qp_offset=-2 / threads=3 / sliced_threads=0 / nr=0 / decimate=1 / interlaced=0 / constrained_intra=0 / bframes=3 / b_pyramid=2 / b_adapt=1 / b_bias=0 / direct=3 / weightb=1 / open_gop=0 / weightp=2 / keyint=240 / keyint_min=24 / scenecut=40 / intra_refresh=0 / rc_lookahead=40 / rc=2pass / mbtree=1 / bitrate=11008 / ratetol=1.0 / qcomp=0.60 / qpmin=10 / qpmax=51 / qpstep=4 / cplxblur=20.0 / qblur=0.5 / vbv_maxrate=25000 / vbv_bufsize=25000 / ip_ratio=1.40 / aq=1:1.00 / nal_hrd=none
Default                                  : Yes
Forced                                   : No

Audio
ID                                       : 2
Format                                   : DTS
Format/Info                              : Digital Theater Systems
Mode                                     : 16
Format settings, Endianness              : Big
Codec ID                                 : A_DTS
Duration                                 : 1h 25mn
Bit rate mode                            : Constant
Bit rate                                 : 1 509 Kbps
Channel(s)                               : 6 channels
Channel positions                        : Front: L C R, Side: L R, LFE
Sampling rate                            : 48.0 KHz
Bit depth                                : 24 bits
Compression mode                         : Lossy
Stream size                              : 926 MiB (12%)
Title                                    : US DTS
Language                                 : English
Default                                  : Yes
Forced                                   : No

Text
ID                                       : 3
Format                                   : UTF-8
Codec ID                                 : S_TEXT/UTF8
Codec ID/Info                            : UTF-8 Plain Text
Title                                    : US
Language                                 : English
Default                                  : No
Forced                                   : No





                                                                                                                                                                                                       

                                                                                                                       
                                                                                                                                                                                                                                                        Garfield.2.2006.1080p.BluRay.x264.DTS-MAGiCAL.torrent (75.57 KB, 下载次数: 0)

回复

使用道具 举报

小黑屋|百度云资源论坛 |网站地图

本网站所有资源来自网络,如无意中侵犯了您的权益,请发邮件至 [email protected],立即清除相关链接

GMT+8, 2020-11-28 06:36 , Processed in 0.116633 second(s), 23 queries .

Powered by Discuz! X3.2

© 2001-2013 Comsenz Inc.

快速回复 返回顶部 返回列表